img image001 image001 image001 image001 image001 image001 image001 image001 image001 image001 image001 image001 image001 image001 image001

Planets Sun Sun Sun
Статистика раздачи
Автор: Nickolas3434 | Размер: 2.19 ГБ | Добавлен: 30 апр 2015
Раздают: 54    Качают: 6
Скачать торрент
Скачать торрент
Описание торрента

СообщениеДобавлено: 30 апр 2015 


Страна: СССР
Производство: ТО Экран
Жанр: Драма
Год выпуска: 1979
Продолжительность: 2 x ~ 01:13:40
Язык: Русский
Режиссер: Анатолий Ниточкин
В ролях: Евгений Шутов, Владимир Борисов, Вячеслав Говалло, Юрий Назаров, Ирина Бразговка, Михаил Кокшенов, Ирина Калиновская, Георгий Мартиросян, Александр Вдовин, Татьяна Божок, Валерий Зотов, Майя Булгакова, Иван Рыжов, Любовь Мышева, Клементина Ростовцева
Описание:Картина снята по мотивам романа Константина Лагунова «Одержимые». Эта драма повествует о жизни геологов-нефтеразведчиков, которые приехали осваивать северные районы.

Файл
Тип релиза: SATRip
Видео: 640x480 (1.33:1), 23.976 fps, XviD MPEG-4 ~1915 kbps avg, 0.26 bit/pixel
Аудио 1: 48 kHz, AC3 Dolby Digital, 2/0 (L,R) ch, ~192 kbps (русский)
Общее
Полное имя : D:ААА2На таёжных ветрах1 серия.avi
Формат : AVI
Формат/Информация : Audio Video Interleave
Размер файла : 1,09 Гбайт
Продолжительность : 1 ч. 13 м.
Общий поток : 2117 Кбит/сек
Программа кодирования : VirtualDubMod 1.5.10.3 | www.virtualdub-fr.org || (build 2550/release)
Библиотека кодирования : VirtualDubMod build 2550/release
Видео
Идентификатор : 0
Формат : MPEG-4 Visual
Профиль формата : Advanced Simple@L5
Параметр BVOP формата : 2
Параметр QPel формата : Нет
Параметр GMC формата : Без точки перехода
Параметр матрицы формата : Default (MPEG)
Режим смешивания : Сжатый битовый поток
Идентификатор кодека : XVID
Идентификатор кодека/Подсказка : XviD
Продолжительность : 1 ч. 13 м.
Битрейт : 1916 Кбит/сек
Ширина : 640 пикселей
Высота : 480 пикселей
Соотношение сторон : 4:3
Частота кадров : 23,976 кадра/сек
Цветовое пространство : YUV
Субдискретизация насыщенности : 4:2:0
Битовая глубина : 8 бит
Тип развёртки : Прогрессивная
Метод сжатия : С потерями
Бит/(Пиксели*Кадры) : 0.260
Размер потока : 1014 Мбайт (90%)
Библиотека кодирования : XviD 1.2.1 (UTC 2008-12-04)
Аудио
Идентификатор : 1
Формат : AC-3
Формат/Информация : Audio Coding 3
Расширение режима : CM (complete main)
Параметр Endianness формата : Big
Идентификатор кодека : 2000
Продолжительность : 1 ч. 13 м.
Вид битрейта : Постоянный
Битрейт : 192 Кбит/сек
Каналы : 2 канала
Расположение каналов : Front: L R
Частота : 48,0 КГц
Битовая глубина : 16 бит
Метод сжатия : С потерями
Размер потока : 102 Мбайт (9%)
Выравнивание : Разделение по промежуткам
Продолжительность промежутка : 42 мс. (1,00 видеокадр)
Время предзагрузки промежутка : 500 мс.

Релиз:



   Похожие торренты   Торрент   Размер 
В этой теме нет новых непрочитанных сообщений. На семи ветрах (1962) DVDRip

88 | 14

1.45 ГБ

В этой теме нет новых непрочитанных сообщений. Boney M. at Sopot Festival, Poland 1979 (1979) DVDRip от MediaClub | КПК

191 | 26

248.12 МБ

В этой теме нет новых непрочитанных сообщений. Нескладуха (1979) SATRip

170 | 6

344.58 МБ

В этой теме нет новых непрочитанных сообщений. Лаборатория (1979) SATRip

1 | 11

492.29 МБ

В этой теме нет новых непрочитанных сообщений. Встреча (1979) SATRip

21 | 2

494.81 МБ

В этой теме нет новых непрочитанных сообщений. Ищи ветра (1979) SATRip

43 | 6

837.76 МБ

В этой теме нет новых непрочитанных сообщений. По следу властелина (1979) SATRip

84 | 16

1.22 ГБ




Вы не можете начинать темы
Вы не можете отвечать на сообщения
Вы не можете редактировать свои сообщения
Вы не можете удалять свои сообщения
Вы не можете добавлять вложения

Перейти:  
Для Мосгорсуда, Роскомнадзора и рекламодателей: mosgorsud-torrent[собачка]yandex.ru
 Вход
ppkBB3cker v.2 © 2008-2014 @ PPK
[ Time : 0.028s | 14 Queries | GZIP : Off ]

Торрент трекер RUTOR.IN, Не можете зайти на rutor.org? Какой новый адрес рутор? Какое зеркало рутор? Не работает rutor.org и зеркала? Тогда наш торрент специально для вас. Rutor.in неофициальное зеркало rutor. В случае если у Вас заблокирован rutor или вдруг Вы не можете на него зайти, то Вы без труда сможете скачать бесплатно и без рекламы последние новинки кино, игр, сериалов и прочего у нас, на Rutor.in. Не нужно использовать прокси, чтобы зайти на рутор, достаточно воспользоваться нашим ресурсом. Все новые фильмы, игры, сериалы, книги и музыка за 2013 и 2014 годы через торрент бесплатно. Скачивайте фильмы в хорошем качестве, игры для пк, xbox, playstation без регистрации. У нас вы найдете новые Зарубежные сериалы и Русские сериалы 2013, 2014, 2015 годов. Оставайтесь с нами, качайте любимые фильмы, игры, сериалы, книги и музыку.