img image001 image001 image001 image001 image001 image001 image001 image001 image001 image001 image001 image001 image001 image001 image001

Planets Sun Sun Sun
Статистика раздачи
Автор: Nickolas3434 | Размер: 1.46 ГБ | Добавлен: 01 май 2015
Раздают: 7    Качают: 2
Скачать торрент
Скачать торрент
Описание торрента

СообщениеДобавлено: 01 май 2015 

Страна: СССР
Производство: Ленфильм
Жанр: драма, военный
Год выпуска: 1945
Продолжительность: 01:39:45
Перевод: Не требуется
Cубтитры: нет
Оригинальная аудиодорожка: русский
Режиссер: Фридрих Эрмлер
В ролях:
Михаил Державин, Петр Андриевский, Юрий Толубеев, Андрей Абрикосов, Александр Зражевский, Николай Корн, Марк Бернес, Владимир Марьев, Павел Волков, С. Рахманин...
Описание:
Фильм рассказывает о судьбах тех, кто принимал участие в Сталинградской битве в 1942 году, ставшей переломом в Великой Отечественной войне. В течение пяти месяцев город сопротивлялся фашистскому наступлению. Отдать Сталинград врагу — значило проиграть войну, но и удержать город казалось почти невозможно…





Источник: DVD5 R5
Качество видео: DVDRip
Формат видео: AVI
Видео: 688x512 (4:3), 25 fps, XviD ~ 1893 kbps avg, 0.215 bit/pixel
Аудио: 48 kHz, Dolby Digital AC3 2.0, 192 kbps
Раздача от:
Общее
Полное имя : Velikiy.perelom.1945.DVDRip_[New-team]_by_AVP_Studio.avi
Формат : AVI
Формат/Информация : Audio Video Interleave
Размер файла : 1,46 Гбайт
Продолжительность : 1 ч. 39 м.
Общий поток : 2094 Кбит/сек
Программа кодирования : VirtualDubModRus 1.5.10.2 (build 2542/release)
Библиотека кодирования : VirtualDubMod build 2542/release
Видео
Идентификатор : 0
Формат : MPEG-4 Visual
Профиль формата : Advanced Simple@L5
Параметр BVOP формата : 1
Параметр QPel формата : Нет
Параметр GMC формата : Без точки перехода
Параметр матрицы формата : Выборочная
Идентификатор кодека : XVID
Идентификатор кодека/Подсказка : XviD
Продолжительность : 1 ч. 39 м.
Битрейт : 1893 Кбит/сек
Ширина : 688 пикселей
Высота : 512 пикселей
Соотношение сторон : 4:3
Частота кадров : 25,000 кадров/сек
Цветовое пространство : YUV
Субдискретизация насыщенности : 4:2:0
Битовая глубина : 8 бит
Тип развёртки : Прогрессивная
Метод сжатия : С потерями
Бит/(Пиксели*Кадры) : 0.215
Размер потока : 1,32 Гбайт (90%)
Библиотека кодирования : XviD 73
Аудио
Идентификатор : 1
Формат : AC-3
Формат/Информация : Audio Coding 3
Расширение режима : CM (complete main)
Параметр Endianness формата : Big
Идентификатор кодека : 2000
Продолжительность : 1 ч. 39 м.
Вид битрейта : Постоянный
Битрейт : 192 Кбит/сек
Каналы : 2 канала
Расположение каналов : Front: L R
Частота : 48,0 КГц
Битовая глубина : 16 бит
Метод сжатия : С потерями
Размер потока : 137 Мбайт (9%)
Выравнивание : Разделение по промежуткам
Продолжительность промежутка : 40 мс. (1,00 видеокадр)
Время предзагрузки промежутка : 500 мс





   Похожие торренты   Торрент   Размер 
В этой теме нет новых непрочитанных сообщений. Великий перелом (1945) DVDRip-AVC от New-Team

30 | 17

1.46 ГБ

В этой теме нет новых непрочитанных сообщений. Великий перелом (1945) DVDRip от New-Team

14 | 13

745.9 МБ

В этой теме нет новых непрочитанных сообщений. Великий перелом (1945) DVDRip

19 | 9

1.36 ГБ

В этой теме нет новых непрочитанных сообщений. Берлин (1945) DVDRip-AVC от New-Team

91 | 13

745.06 МБ

В этой теме нет новых непрочитанных сообщений. Непокоренные (1945) DVDRip от New-Team

26 | 14

1.46 ГБ

В этой теме нет новых непрочитанных сообщений. Непокоренные (1945) DVDRip-AVC от New-Team

9 | 2

1.46 ГБ

В этой теме нет новых непрочитанных сообщений. Берлин (1945) DVDRip от New-Team

20 | 4

745.04 МБ




Вы не можете начинать темы
Вы не можете отвечать на сообщения
Вы не можете редактировать свои сообщения
Вы не можете удалять свои сообщения
Вы не можете добавлять вложения

Перейти:  
Для Мосгорсуда, Роскомнадзора и рекламодателей: mosgorsud-torrent[собачка]yandex.ru
 Вход
ppkBB3cker v.2 © 2008-2014 @ PPK
[ Time : 0.034s | 16 Queries | GZIP : Off ]

cron