img image001 image001 image001 image001 image001 image001 image001 image001 image001 image001 image001 image001 image001 image001 image001

Planets Sun Sun Sun
Статистика раздачи
Автор: Nickolas3434 | Размер: 2.21 ГБ | Добавлен: 03 май 2015
Раздают: 100    Качают: 11
Скачать торрент
Скачать торрент
Описание торрента

СообщениеДобавлено: 03 май 2015 


Оригинальное название: Жесть
Год выхода: 2006
Жанр: Криминал, триллер
Режиссер: Денис Нейманд
В ролях: Алёна Бабенко, Михаил Ефремов, Игорь Лифанов, Анатолий Белый, Гоша Куценко, Игорь Черневич, Рената Литвинова, Вячеслав Разбегаев, Алексей Серебряков, Сергей Шакуров
О фильме: Марина, известная журналистка, специализирующаяся на сенсационных материалах, впадает в депрессию и подумывает о смене профессии после того, как один из героев ее материала был застрелен милицейским снайпером прямо у нее на глазах. Но ее упрашивают сделать один последний материал: съездить в спецлечебницу и поговорить с человеком, которого обвиняют в жестоких серийных убийствах подростков. Она решила, что это ее последний журналистский материал, последний долг перед скандальной газетой, в которой она проработала несколько лет. Однако когда убийца сбегает и теряется внутри бескрайнего дачного поселка, а Марина отправляется на его поиски, она понимает, что ее последний материал может оказаться вообще последним ее делом. А кровавый убийца далеко не самый страшный из населяющих дачи созданий и начинается настоящий кошмар…
Страна: Россия
Студия: MB Productions
Продолжительность: 01:45:37
Язык: Русский
Кодек: MPEG-4 AVC
Качество: DVDRip-AVC
Видео: 718x434@1022x434, 2542 Кбит/с, 25,000 fps
Звук: AC3, 6 ch, 448 Кбит/с
Субтитры: Русские
Семпл
- Сценарий Константина Мурзенко сначала назывался «Шесть соток», потом обрел каламбурное название «Жесть соток», от которого и произошло название картины.
- В начальных титрах, стилизованных под газетные полосы, допущена ошибка: в углу стоит дата «среда, 23 марта 2006». Это дата премьеры фильма, но 23 марта — это четверг.
- Рекламная служба московского метрополитена отказалась использовать в метрорекламе слоган фильма «Ада нет, кроме того, что рядом».
- К премьере фильма был приурочен выход одноименной компьютерной игры.
- Одного из больных, которого санитары вывозят из палаты для буйных, сыграл кинокритик «Афиши» Станислав Зельвенский.
- Родители Дениса Нейманда по профессии психиатры.
- Слоган фильма — «Ада нет, кроме того, что рядом» — является строчкой из песни «Разговоры о напасах» группы «Кровосток». Московский метрополитен не дал согласия на размещение этого слогана на рекламных постерах фильма в вагонах метропоездов.
- Музыканты «Кровостока» сыграли бандитов из дачного посёлка.
General
Unique ID : 203790289270444516140631264112552035218 (0x995095011B2CFF8AAE6234D0154DC392)
Complete name : J:Жесть.2006.x264.DVDRip.(AVC).mkv
Format : Matroska
Format version : Version 4 / Version 2
File size : 2.21 GiB
Duration : 1h 45mn
Overall bit rate : 2 991 Kbps
Movie name : Жесть / 2006 / Rip by PowerRock / ExKinoRay
Encoded date : UTC 2015-04-27 21:38:45
Writing application : mkvmerge v7.7.0 ('Six Voices') 64bit built on Feb 28 2015 23:39:33
Writing library : libebml v1.3.1 + libmatroska v1.4.2
Attachements : cover.jpg
DURATION : 01:40:00.605000000
NUMBER_OF_FRAMES : 871
NUMBER_OF_BYTES : 67417
_STATISTICS_WRITING_APP : mkvmerge v7.7.0 ('Six Voices') 64bit built on Feb 28 2015 23:39:33
_STATISTICS_WRITING_DATE_UT : 2015-04-27 21:38:45
_STATISTICS_TAGS : BPS DURATION NUMBER_OF_FRAMES NUMBER_OF_BYTES
Video
ID : 1
Format : AVC
Format/Info : Advanced Video Codec
Format profile : High@L4.1
Format settings, CABAC : Yes
Format settings, ReFrames : 8 frames
Codec ID : V_MPEG4/ISO/AVC
Duration : 1h 45mn
Bit rate : 2 542 Kbps
Width : 718 pixels
Height : 434 pixels
Display aspect ratio : 2.35:1
Frame rate mode : Constant
Frame rate : 25.000 fps
Color space : YUV
Chroma subsampling : 4:2:0
Bit depth : 8 bits
Scan type : Progressive
Bits/(Pixel*Frame) : 0.326
Stream size : 1.83 GiB (83%)
Title : Жесть / 2006
Writing library : x264 core 146 r2538 121396c
Encoding settings : cabac=1 / ref=8 / deblock=1:-1:-1 / analyse=0x3:0x113 / me=umh / subme=10 / psy=1 / psy_rd=1.00:0.00 / mixed_ref=1 / me_range=24 / chroma_me=1 / trellis=2 / 8x8dct=1 / cqm=0 / deadzone=21,11 / fast_pskip=0 / chroma_qp_offset=-2 / threads=6 / lookahead_threads=1 / sliced_threads=0 / nr=0 / decimate=1 / interlaced=0 / bluray_compat=0 / constrained_intra=0 / bframes=7 / b_pyramid=2 / b_adapt=2 / b_bias=0 / direct=3 / weightb=1 / open_gop=0 / weightp=2 / keyint=250 / keyint_min=23 / scenecut=40 / intra_refresh=0 / rc_lookahead=50 / rc=2pass / mbtree=1 / bitrate=2542 / ratetol=1.0 / qcomp=0.60 / qpmin=10 / qpmax=51 / qpstep=4 / cplxblur=20.0 / qblur=0.5 / vbv_maxrate=14000 / vbv_bufsize=14000 / nal_hrd=none / filler=0 / ip_ratio=1.40 / aq=1:1.00
Default : Yes
Forced : No
DURATION : 01:45:37.560000000
NUMBER_OF_FRAMES : 158439
NUMBER_OF_BYTES : 2012618273
_STATISTICS_WRITING_APP : mkvmerge v7.7.0 ('Six Voices') 64bit built on Feb 28 2015 23:39:33
_STATISTICS_WRITING_DATE_UT : 2015-04-27 21:38:45
_STATISTICS_TAGS : BPS DURATION NUMBER_OF_FRAMES NUMBER_OF_BYTES
Audio
ID : 2
Format : AC-3
Format/Info : Audio Coding 3
Mode extension : CM (complete main)
Format settings, Endianness : Big
Codec ID : A_AC3
Duration : 1h 45mn
Bit rate mode : Constant
Bit rate : 448 Kbps
Channel(s) : 6 channels
Channel positions : Front: L C R, Side: L R, LFE
Sampling rate : 48.0 KHz
Compression mode : Lossy
Stream size : 338 MiB (15%)
Language : Russian
Default : Yes
Forced : No
Text
ID : 3
Format : UTF-8
Codec ID : S_TEXT/UTF8
Codec ID/Info : UTF-8 Plain Text
Language : Russian
Default : Yes
Forced : No




Релиз от:



   Похожие торренты   Торрент   Размер 
В этой теме нет новых непрочитанных сообщений. Жесть (2006) DVDRip-AVC

146 | 13

2.06 ГБ

В этой теме нет новых непрочитанных сообщений. Жесть (2006) DVDRip-AVC

6 | 5

2.19 ГБ

В этой теме нет новых непрочитанных сообщений. Жесть (2006) DVDRip

48 | 7

1.46 ГБ

В этой теме нет новых непрочитанных сообщений. Колбасный Цех 6 - Жесть (2006) DVD5 от Юрика

16 | 55

3.08 ГБ

В этой теме нет новых непрочитанных сообщений. S.T.A.L.K.E.R - Жесть (2011) PC

37 | 8

6.43 ГБ

В этой теме нет новых непрочитанных сообщений. VA - Авто ЖЕСТЬ (2010) MP3

0 | 2

661.64 МБ

В этой теме нет новых непрочитанных сообщений. Crysis: Жесть 2 (2010) PC | RePack

134 | 16

4.74 ГБ




Вы не можете начинать темы
Вы не можете отвечать на сообщения
Вы не можете редактировать свои сообщения
Вы не можете удалять свои сообщения
Вы не можете добавлять вложения

Перейти:  
Для Мосгорсуда, Роскомнадзора и рекламодателей: mosgorsud-torrent[собачка]yandex.ru
 Вход
ppkBB3cker v.2 © 2008-2014 @ PPK
[ Time : 0.041s | 14 Queries | GZIP : Off ]

Торрент трекер RUTOR.IN, Не можете зайти на rutor.org? Какой новый адрес рутор? Какое зеркало рутор? Не работает rutor.org и зеркала? Тогда наш торрент специально для вас. Rutor.in неофициальное зеркало rutor. В случае если у Вас заблокирован rutor или вдруг Вы не можете на него зайти, то Вы без труда сможете скачать бесплатно и без рекламы последние новинки кино, игр, сериалов и прочего у нас, на Rutor.in. Не нужно использовать прокси, чтобы зайти на рутор, достаточно воспользоваться нашим ресурсом. Все новые фильмы, игры, сериалы, книги и музыка за 2013 и 2014 годы через торрент бесплатно. Скачивайте фильмы в хорошем качестве, игры для пк, xbox, playstation без регистрации. У нас вы найдете новые Зарубежные сериалы и Русские сериалы 2013, 2014, 2015 годов. Оставайтесь с нами, качайте любимые фильмы, игры, сериалы, книги и музыку.