img image001 image001 image001 image001 image001 image001 image001 image001 image001 image001 image001 image001 image001 image001 image001

Planets Sun Sun Sun
Статистика раздачи
Автор: Nickolas3434 | Размер: 2.25 ГБ | Добавлен: 03 май 2015
Раздают: 505    Качают: 10
Скачать торрент
Скачать торрент
Описание торрента

СообщениеДобавлено: 03 май 2015 


Информация о фильме
Оригинальное название: Битва за Севастополь
Год выпуска: 2015
Жанр: Военный, ВОВ, драма, реальные события
Выпущено: Россия, Украина, Новые люди
Режиссер: Сергей Мокрицкий
В ролях: Юлия Пересильд, Евгений Цыганов, Олег Васильков, Никита Тарасов, Джоан Блэкэм, Полина Пахомова, Владимир Лилицкий, Анатолий Кот, Нателла Абелева-Таганова, Валерий Гришко
О фильме: Одна из немногих кинолент посвященных женщинам на войне. История известной женщины-снайпера, принимавшей активное участие в обороне Севастополя. Уничтожив 309 фашистов, она покинула Севастополь, будучи серьезно раненой. После выздоровления оказалась в США с русской делегацией, ездила вместе с Элеонорой Рузвельт по Америке, убеждая открыть второй фронт.

Файл
Качество: WEB-DLRip (AVC)
Видео: MPEG-4 AVC, 2350 Кбит/с, 1024x428, 24 кадр/с
Аудио: AC3, 6 ch, 384 Кбит/с
Размер: 2.25 ГБ
Продолжительность: 01:57:57
Язык: Русский
Озвучивание - (iTunes Russia)
Сохранены оригинальные чаптеры как на исходном WEB-DL.
x264 [info]: frame I:1193 Avg QP:13.82 size: 71034
x264 [info]: frame P:50056 Avg QP:17.61 size: 23672
x264 [info]: frame B:125667 Avg QP:21.03 size: 6440
x264 [info]: consecutive B-frames: 4.0% 6.5% 7.3% 65.9% 6.1% 8.1% 0.9% 0.7% 0.2% 0.5%
x264 [info]: mb I I16..4: 8.7% 59.8% 31.5%
x264 [info]: mb P I16..4: 0.9% 11.7% 2.2% P16..4: 28.9% 32.3% 11.4% 5.1% 0.8% skip: 6.8%
x264 [info]: mb B I16..4: 0.1% 1.7% 0.3% B16..8: 33.0% 19.6% 3.3% direct: 5.0% skip:37.0% L0:36.8% L1:45.9% BI:17.3%
x264 [info]: 8x8 transform intra:77.8% inter:46.7%
x264 [info]: direct mvs spatial:97.0% temporal:3.0%
x264 [info]: coded y,uvDC,uvAC intra: 90.4% 67.1% 37.5% inter: 23.2% 12.8% 6.0%
x264 [info]: i16 v,h,dc,p: 17% 8% 6% 70%
x264 [info]: i8 v,h,dc,ddl,ddr,vr,hd,vl,hu: 10% 9% 6% 9% 12% 13% 13% 13% 15%
x264 [info]: i4 v,h,dc,ddl,ddr,vr,hd,vl,hu: 13% 8% 5% 8% 15% 14% 13% 11% 13%
x264 [info]: i8c dc,h,v,p: 38% 30% 18% 13%
x264 [info]: Weighted P-Frames: Y:4.4% UV:1.2%
x264 [info]: ref P L0: 54.6% 11.1% 15.8% 5.4% 4.3% 2.9% 2.6% 1.5% 1.5% 0.3% 0.0%
x264 [info]: ref B L0: 83.8% 8.3% 3.5% 1.7% 1.1% 0.9% 0.5% 0.2%
x264 [info]: ref B L1: 95.9% 4.1%
x264 [info]: kb/s:2350.25

Общее
Уникальный идентификатор : 214509012702226364965646053315519209859 (0xA160EEDF0374CC82A53FB8A922F06183)
Полное имя : D:ЗагрузкиBitva.Za.Sevastopol.2015.x264.WEB-DLRip.(AVC).ExKinoRay.mkv
Формат : Matroska
Версия формата : Version 2
Размер файла : 2,25 Гбайт
Продолжительность : 1 ч. 57 м.
Общий поток : 2736 Кбит/сек
Название фильма : Битва за Севастополь.2015.Rip by: ollan
Дата кодирования : UTC 2015-05-02 10:08:57
Программа кодирования : mkvmerge v5.6.0 ('Kenya Kane') built on May 27 2012 16:44:04
Библиотека кодирования : libebml v1.2.3 + libmatroska v1.3.0
Видео
Идентификатор : 1
Формат : AVC
Формат/Информация : Advanced Video Codec
Профиль формата : High@L4.1
Параметр CABAC формата : Да
Параметр ReFrames формата : 9 кадров
Идентификатор кодека : V_MPEG4/ISO/AVC
Продолжительность : 1 ч. 57 м.
Битрейт : 2350 Кбит/сек
Ширина : 1024 пикселя
Высота : 428 пикселей
Соотношение сторон : 2,40:1
Режим частоты кадров : Постоянный
Частота кадров : 25,000 кадров/сек
Цветовое пространство : YUV
Субдискретизация насыщенности : 4:2:0
Битовая глубина : 8 бит
Тип развёртки : Прогрессивная
Бит/(Пиксели*Кадры) : 0.214
Размер потока : 1,89 Гбайт (84%)
Библиотека кодирования : x264 core 125 r2200 999b753
Настройки программы : cabac=1 / ref=9 / deblock=1:-3:-3 / analyse=0x3:0x133 / me=umh / subme=11 / psy=1 / psy_rd=1.00:0.10 / mixed_ref=1 / me_range=32 / chroma_me=1 / trellis=2 / 8x8dct=1 / cqm=0 / deadzone=21,11 / fast_pskip=0 / chroma_qp_offset=-3 / threads=12 / lookahead_threads=2 / sliced_threads=0 / nr=0 / decimate=0 / interlaced=0 / bluray_compat=0 / constrained_intra=0 / bframes=9 / b_pyramid=2 / b_adapt=2 / b_bias=0 / direct=3 / weightb=1 / open_gop=0 / weightp=2 / keyint=250 / keyint_min=25 / scenecut=40 / intra_refresh=0 / rc_lookahead=60 / rc=2pass / mbtree=1 / bitrate=2350 / ratetol=1.0 / qcomp=0.60 / qpmin=0 / qpmax=69 / qpstep=4 / cplxblur=20.0 / qblur=0.5 / ip_ratio=1.40 / aq=1:1.00
Язык : Russian
Default : Да
Forced : Нет
Аудио
Идентификатор : 2
Формат : AC-3
Формат/Информация : Audio Coding 3
Расширение режима : CM (complete main)
Параметр Endianness формата : Big
Идентификатор кодека : A_AC3
Продолжительность : 1 ч. 57 м.
Вид битрейта : Постоянный
Битрейт : 384 Кбит/сек
Каналы : 6 каналов
Расположение каналов : Front: L C R, Side: L R, LFE
Частота : 48,0 КГц
Битовая глубина : 16 бит
Метод сжатия : С потерями
Размер потока : 324 Мбайт (14%)
Заголовок : iTunes Russia
Язык : Russian
Default : Да
Forced : Нет
Меню
00:00:00.000 : ru:Chapter 01
00:07:37.000 : ru:Chapter 02
00:16:32.000 : ru:Chapter 03
00:21:52.000 : ru:Chapter 04
00:27:23.000 : ru:Chapter 05
00:34:39.000 : ru:Chapter 06
00:41:50.000 : ru:Chapter 07
00:49:32.000 : ru:Chapter 08
00:56:32.000 : ru:Chapter 09
01:04:04.000 : ru:Chapter 10
01:12:04.000 : ru:Chapter 11
01:20:02.000 : ru:Chapter 12
01:39:11.000 : ru:Chapter 14
01:46:22.000 : ru:Chapter 15
01:54:34.000 : ru:Chapter 16





Релиз от: Rip by:



   Похожие торренты   Торрент   Размер 
В этой теме нет новых непрочитанных сообщений. Битва за Севастополь (2015) WEB-DLRip-AVC | iTunes Russia

117 | 22

1.04 ГБ

В этой теме нет новых непрочитанных сообщений. Битва за Севастополь (2015) WEB-DL 720p | iTunes Russia

2150 | 146

3.51 ГБ

В этой теме нет новых непрочитанных сообщений. Битва за Севастополь (2015) WEB-DLRip от Scarabey | iTunes

939 | 12

2.18 ГБ

В этой теме нет новых непрочитанных сообщений. Битва за Севастополь (2015) WEB-DLRip от Scarabey | iTunes

897 | 10

796.83 МБ

В этой теме нет новых непрочитанных сообщений. Битва за Севастополь (2015) WEB-DLRip от Scarabey | iTunes

1024 | 17

1.45 ГБ

В этой теме нет новых непрочитанных сообщений. Хоббит: Битва пяти воинств / The Hobbit: The Battle of the Five Armies (2014) WEB-DLRip-AVC от ExKinoRay | iTunes Russia

430 | 15

3.29 ГБ

В этой теме нет новых непрочитанных сообщений. Хоббит: Битва пяти воинств / The Hobbit: The Battle of the Five Armies (2014) WEB-DLRip-AVC от ExKinoRay | iTunes Russia

136 | 7

1.46 ГБ




Вы не можете начинать темы
Вы не можете отвечать на сообщения
Вы не можете редактировать свои сообщения
Вы не можете удалять свои сообщения
Вы не можете добавлять вложения

Перейти:  
Для Мосгорсуда, Роскомнадзора и рекламодателей: mosgorsud-torrent[собачка]yandex.ru
 Вход
ppkBB3cker v.2 © 2008-2014 @ PPK
[ Time : 0.025s | 14 Queries | GZIP : Off ]

Торрент трекер RUTOR.IN, Не можете зайти на rutor.org? Какой новый адрес рутор? Какое зеркало рутор? Не работает rutor.org и зеркала? Тогда наш торрент специально для вас. Rutor.in неофициальное зеркало rutor. В случае если у Вас заблокирован rutor или вдруг Вы не можете на него зайти, то Вы без труда сможете скачать бесплатно и без рекламы последние новинки кино, игр, сериалов и прочего у нас, на Rutor.in. Не нужно использовать прокси, чтобы зайти на рутор, достаточно воспользоваться нашим ресурсом. Все новые фильмы, игры, сериалы, книги и музыка за 2013 и 2014 годы через торрент бесплатно. Скачивайте фильмы в хорошем качестве, игры для пк, xbox, playstation без регистрации. У нас вы найдете новые Зарубежные сериалы и Русские сериалы 2013, 2014, 2015 годов. Оставайтесь с нами, качайте любимые фильмы, игры, сериалы, книги и музыку.