img image001 image001 image001 image001 image001 image001 image001 image001 image001 image001 image001 image001 image001 image001 image001

Planets Sun Sun Sun
Статистика раздачи
Автор: Nickolas3434 | Размер: 3.51 ГБ | Добавлен: 03 май 2015
Раздают: 2150    Качают: 146
Скачать торрент
Скачать торрент
Описание торрента

СообщениеДобавлено: 03 май 2015 


Информация о фильме
Название: Битва за Севастополь
Год выхода: 2015
Жанр: Военный, драма, мелодрама, боевик
Режиссер: Сергей Мокрицкий
В ролях: Юлия Пересильд, Евгений Цыганов, Олег Васильков, Никита Тарасов, Джоан Блэкэм, Полина Пахомова, Владимир Лилицкий, Анатолий Кот, Нателла Абелева-Таганова, Валерий Гришко
О фильме:
Любовь под нескончаемым огнем противника, дружба с Элеонорой Рузвельт, выступление на конференции, повлиявшее на исход Второй мировой войны, желание жить и страх потерять любимого человека — справится ли со всем этим хрупкая женщина? Это реальная история Людмилы Павличенко — легендарной женщины-снайпера. Солдаты шли в бой с ее именем на устах, а враги устроили на нее охоту. На поле битвы она видела смерть и страдания, но самым серьезным испытанием для нее стала любовь, которую у нее могла забрать война…

Страна: Россия, Украина
Студия: Кинодел, Новые люди
Продолжительность: 01:57:57
Перевод: Не требуется [iTunes Russia]
Файл
Кодек: AVC
Качество: WEB-DL 720p
Видео: 960@1280x534, 25 fps, 3796 Kbps
Звук: AC3, 48 kHz, 6 ch, 384 Kbps
Дополнительно: Сохранены оригинальные чаптеры.
General
Unique ID : 249612569790963477664175606387073398374 (0xBBC9A1DC28508A65AF1B52B6F04CB666)
Complete name : F:B1tva.3a.C3vact0p0L.2015.O.WEB-DL.720p.mkv
Format : Matroska
Format version : Version 4 / Version 2
File size : 3.51 GiB
Duration : 1h 57mn
Overall bit rate : 4 265 Kbps
Encoded date : UTC 2015-05-01 18:11:47
Writing application : mkvmerge v6.9.1 ('Blue Panther') 64bit built on Apr 18 2014 18:23:38
Writing library : libebml v1.3.0 + libmatroska v1.4.1
Video
ID : 1
Format : AVC
Format/Info : Advanced Video Codec
Format profile : Main@L3.1
Format settings, CABAC : No
Format settings, ReFrames : 2 frames
Codec ID : V_MPEG4/ISO/AVC
Duration : 1h 57mn
Bit rate : 3 796 Kbps
Width : 960 pixels
Height : 534 pixels
Display aspect ratio : 2.40:1
Frame rate : 25.000 fps
Color space : YUV
Chroma subsampling : 4:2:0
Bit depth : 8 bits
Scan type : Progressive
Bits/(Pixel*Frame) : 0.296
Stream size : 3.13 GiB (89%)
Language : English
Default : Yes
Forced : No
Color primaries : BT.709-5, BT.1361, IEC 61966-2-4, SMPTE RP177
Transfer characteristics : BT.709-5, BT.1361
Matrix coefficients : BT.709-5, BT.1361, IEC 61966-2-4 709, SMPTE RP177
Audio
ID : 2
Format : AC-3
Format/Info : Audio Coding 3
Mode extension : CM (complete main)
Codec ID : A_AC3
Duration : 1h 57mn
Bit rate mode : Constant
Bit rate : 384 Kbps
Channel(s) : 6 channels
Channel positions : Front: L C R, Side: L R, LFE
Sampling rate : 48.0 KHz
Bit depth : 16 bits
Compression mode : Lossy
Stream size : 324 MiB (9%)
Language : Russian
Default : Yes
Forced : No
Menu
00:00:00.000 : en:1
00:07:37.000 : en:2
00:16:32.000 : en:3
00:21:52.000 : en:4
00:27:23.000 : en:5
00:34:39.000 : en:6
00:41:50.000 : en:7
00:49:32.000 : en:8
00:56:32.000 : en:9
01:04:04.000 : en:10
01:12:04.000 : en:11
01:20:02.000 : en:12
01:30:27.000 : en:13
01:39:11.000 : en:14
01:46:22.000 : en:15
01:54:34.000 : en:16




   Похожие торренты   Торрент   Размер 
В этой теме нет новых непрочитанных сообщений. Битва за Севастополь (2015) WEB-DLRip-AVC | iTunes Russia

117 | 22

1.04 ГБ

В этой теме нет новых непрочитанных сообщений. Битва за Севастополь (2015) WEB-DLRip-AVC от ExKinoRay | iTunes Russia

505 | 10

2.25 ГБ

В этой теме нет новых непрочитанных сообщений. Битва за Севастополь (2015) WEB-DLRip от Scarabey | iTunes

1024 | 17

1.45 ГБ

В этой теме нет новых непрочитанных сообщений. Битва за Севастополь (2015) WEB-DLRip от Scarabey | iTunes

939 | 12

2.18 ГБ

В этой теме нет новых непрочитанных сообщений. Битва за Севастополь (2015) WEB-DLRip от Scarabey | iTunes

897 | 10

796.83 МБ

В этой теме нет новых непрочитанных сообщений. Битва за Севастополь (2015) BDRip 720p | Лицензия

1422 | 86

4.38 ГБ

В этой теме нет новых непрочитанных сообщений. Битва за Севастополь (2015) BDRip 720p | Лицензия

299 | 29

6.13 ГБ




Вы не можете начинать темы
Вы не можете отвечать на сообщения
Вы не можете редактировать свои сообщения
Вы не можете удалять свои сообщения
Вы не можете добавлять вложения

Перейти:  
Для Мосгорсуда, Роскомнадзора и рекламодателей: mosgorsud-torrent[собачка]yandex.ru
 Вход
ppkBB3cker v.2 © 2008-2014 @ PPK
[ Time : 2.282s | 15 Queries | GZIP : Off ]

Торрент трекер RUTOR.IN, Не можете зайти на rutor.org? Какой новый адрес рутор? Какое зеркало рутор? Не работает rutor.org и зеркала? Тогда наш торрент специально для вас. Rutor.in неофициальное зеркало rutor. В случае если у Вас заблокирован rutor или вдруг Вы не можете на него зайти, то Вы без труда сможете скачать бесплатно и без рекламы последние новинки кино, игр, сериалов и прочего у нас, на Rutor.in. Не нужно использовать прокси, чтобы зайти на рутор, достаточно воспользоваться нашим ресурсом. Все новые фильмы, игры, сериалы, книги и музыка за 2013 и 2014 годы через торрент бесплатно. Скачивайте фильмы в хорошем качестве, игры для пк, xbox, playstation без регистрации. У нас вы найдете новые Зарубежные сериалы и Русские сериалы 2013, 2014, 2015 годов. Оставайтесь с нами, качайте любимые фильмы, игры, сериалы, книги и музыку.
cron