img image001 image001 image001 image001 image001 image001 image001 image001 image001 image001 image001 image001 image001 image001 image001

Planets Sun Sun Sun
Статистика раздачи
Автор: Nickolas3434 | Размер: 2.58 ГБ | Добавлен: 04 май 2015
Раздают: 86    Качают: 6
Скачать торрент
Скачать торрент
Описание торрента

СообщениеДобавлено: 04 май 2015 


Оригинальное название: Искупление
Год выпуска: 2012
Страна: Россия
Жанр: драма, военный, история
Продолжительность: 02:05:22
Язык: русский
Режиссёр: Александр Прошкин
В ролях: Виктория Романенко, Риналь Мухаметов, Андрей Панин, Татьяна Яковенко, Виктор Сухоруков, Сергей Дрейден, Екатерина Волкова, Наталья Морозова, Алишер Умаров, Николай Бутенин
Описание: Действие фильма разворачивается в канун первого послевоенного нового 1946-го года в разорённом южном городе, где ещё совсем недавно жили в мире и согласии представители различных национальностей. Молох войны разделил их на жертв и палачей, породил бесконечное сострадание и нечеловеческую низость. Впрочем, и послевоенная жизнь в разрухе, голоде и нищете обернулась тяжким испытанием. Посудомойка, вдова героя-летчика, ворует из милицейской столовой, чтоб прокормить шестнадцатилетнюю дочь и двух доходяг, которых по доброте душевной приютила в своём убогом жилище. Возмущённая дочь доносит на мать, и та отправляется искупать грех в тюрьму. Тема искупления в фильме сложна и непрямолинейна. Молодой лейтенант лётчик, еврей по национальности, возвращается после госпиталя в родной город и узнаёт, что вся его семья погибла в годы оккупации от рук негодяя соседа. Слепая жажда обращена в пустоту — негодяй понёс наказание и сгнивает заживо в тюрьме. Испепеляющее лейтенанта чувство толкает его на самоубийство. И только новое, пробуждающееся в нём чувство к влюблённой в него юной девушке спасает его от рокового шага. Экранизация романа Фридриха Горенштейна.

Качество: BDRip AVC Сравнение с исходником
Формат: MKV
Видео: MPEG-4 AVC, 1993 Кбит/с, 1024x434, 24 кадра/с
Аудио 1: русский, AC3, 448 kbps, 6 ch, 48 kHz [оригинал]
Аудио 2: немецкий, AC3, 448 kbps, 6 ch, 48 kHz [дублированный]
Ника, 2013 год
Победитель (1):
Лучшая мужская роль второго плана (Андрей Панин)
Номинации (2):
Лучшая работа оператора
Лучшая музыка
Кинотавр, 2012 год
Номинации (1):
Главный приз

frame I:983 Avg QP:16.42 size: 59013
frame P:41050 Avg QP:18.08 size: 22885
frame B:138497 Avg QP:20.65 size: 6714
Общее
Уникальный идентификатор : 238869707092251757074874395848221024234 (0xB3B4A1D5DDE31B8ABCBC1F0ED3525FEA)
Полное имя : D:VideoИскупление.2012.BDRip.AVC.mkv
Формат : Matroska
Версия формата : Version 4 / Version 2
Размер файла : 2,58 Гбайт
Продолжительность : 2 ч. 5 м.
Общий поток : 2948 Кбит/сек
Название фильма : BDRip -- STarankov
Дата кодирования : UTC 2015-05-03 02:24:57
Программа кодирования : mkvmerge v7.8.0 ('River Man') 64bit built on Mar 27 2015 16:31:37
Библиотека кодирования : libebml v1.3.1 + libmatroska v1.4.2
DURATION : 02:05:21.824000000
NUMBER_OF_FRAMES : 235057
NUMBER_OF_BYTES : 421222144
_STATISTICS_WRITING_APP : mkvmerge v7.8.0 ('River Man') 64bit built on Mar 27 2015 16:31:37
_STATISTICS_WRITING_DATE_UTC : 2015-05-03 02:24:57
_STATISTICS_TAGS : BPS DURATION NUMBER_OF_FRAMES NUMBER_OF_BYTES
Видео
Идентификатор : 1
Формат : AVC
Формат/Информация : Advanced Video Codec
Профиль формата : High@L4.1
Параметр CABAC формата : Да
Параметр ReFrames формата : 9 кадров
Идентификатор кодека : V_MPEG4/ISO/AVC
Продолжительность : 2 ч. 5 м.
Битрейт : 1993 Кбит/сек
Ширина : 1024 пикселя
Высота : 434 пикселя
Соотношение сторон : 2,35:1
Режим частоты кадров : Постоянный
Частота кадров : 24,000 кадра/сек
Цветовое пространство : YUV
Субдискретизация насыщенности : 4:2:0
Битовая глубина : 8 бит
Тип развёртки : Прогрессивная
Бит/(Пиксели*Кадры) : 0.187
Размер потока : 1,75 Гбайт (68%)
Библиотека кодирования : x264 core 146 r2538 121396c
Настройки программы : cabac=1 / ref=9 / deblock=1:-1:-1 / analyse=0x3:0x113 / me=umh / subme=10 / psy=1 / psy_rd=1.00:0.15 / mixed_ref=1 / me_range=32 / chroma_me=1 / trellis=2 / 8x8dct=1 / cqm=0 / deadzone=21,11 / fast_pskip=1 / chroma_qp_offset=-3 / threads=6 / lookahead_threads=1 / sliced_threads=0 / nr=0 / decimate=1 / interlaced=0 / bluray_compat=0 / constrained_intra=0 / bframes=8 / b_pyramid=2 / b_adapt=2 / b_bias=0 / direct=1 / weightb=1 / open_gop=0 / weightp=2 / keyint=230 / keyint_min=23 / scenecut=40 / intra_refresh=0 / rc_lookahead=40 / rc=crf / mbtree=0 / crf=17.9 / qcomp=0.60 / qpmin=0 / qpmax=69 / qpstep=4 / vbv_maxrate=40000 / vbv_bufsize=50000 / crf_max=0.0 / nal_hrd=none / filler=0 / ip_ratio=1.40 / pb_ratio=1.30 / aq=1:1.00
Язык : Russian
Default : Да
Forced : Нет
DURATION : 02:05:22.084000000
NUMBER_OF_FRAMES : 180530
NUMBER_OF_BYTES : 1927355232
_STATISTICS_WRITING_APP : mkvmerge v7.8.0 ('River Man') 64bit built on Mar 27 2015 16:31:37
_STATISTICS_WRITING_DATE_UTC : 2015-05-03 02:24:57
_STATISTICS_TAGS : BPS DURATION NUMBER_OF_FRAMES NUMBER_OF_BYTES
Аудио #1
Идентификатор : 2
Формат : AC-3
Формат/Информация : Audio Coding 3
Расширение режима : CM (complete main)
Параметр Endianness формата : Big
Идентификатор кодека : A_AC3
Продолжительность : 2 ч. 5 м.
Вид битрейта : Постоянный
Битрейт : 448 Кбит/сек
Каналы : 6 каналов
Расположение каналов : Front: L C R, Side: L R, LFE
Частота : 48,0 КГц
Битовая глубина : 16 бит
Метод сжатия : С потерями
Размер потока : 402 Мбайт (15%)
Заголовок : Оригинал
Язык : Russian
Default : Да
Forced : Нет
Аудио #2
Идентификатор : 3
Формат : AC-3
Формат/Информация : Audio Coding 3
Расширение режима : CM (complete main)
Параметр Endianness формата : Big
Идентификатор кодека : A_AC3
Продолжительность : 2 ч. 5 м.
Вид битрейта : Постоянный
Битрейт : 448 Кбит/сек
Каналы : 6 каналов
Расположение каналов : Front: L C R, Side: L R, LFE
Частота : 48,0 КГц
Битовая глубина : 16 бит
Метод сжатия : С потерями
Размер потока : 402 Мбайт (15%)
Заголовок : DUB
Язык : German
Default : Нет
Forced : Нет





   Похожие торренты   Торрент   Размер 
В этой теме нет новых непрочитанных сообщений. Искупление (2012) BDRip 1080p

37 | 5

10.07 ГБ

В этой теме нет новых непрочитанных сообщений. Искупление (2012) BDRip 720p

249 | 17

3.72 ГБ

В этой теме нет новых непрочитанных сообщений. Искупление (2012) BDRip от HQCLUB | Лицензия

77 | 3

2.18 ГБ

В этой теме нет новых непрочитанных сообщений. Искупление (2012) BDRip 720p от KinoGadget and KinoXa | iPad

420 | 5

1.64 ГБ

В этой теме нет новых непрочитанных сообщений. Искупление (2012) DVDRip

63 | 8

1.47 ГБ

В этой теме нет новых непрочитанных сообщений. Искупление (2012) SATRip

9 | 6

700.58 МБ

В этой теме нет новых непрочитанных сообщений. Искупление (2012) DVD9

3 | 5

7.07 ГБ




Вы не можете начинать темы
Вы не можете отвечать на сообщения
Вы не можете редактировать свои сообщения
Вы не можете удалять свои сообщения
Вы не можете добавлять вложения

Перейти:  
Для Мосгорсуда, Роскомнадзора и рекламодателей: mosgorsud-torrent[собачка]yandex.ru
 Вход
ppkBB3cker v.2 © 2008-2014 @ PPK
[ Time : 0.040s | 16 Queries | GZIP : Off ]

cron