img image001 image001 image001 image001 image001 image001 image001 image001 image001 image001 image001 image001 image001 image001 image001

Planets Sun Sun Sun
Статистика раздачи
Автор: Nickolas3434 | Размер: 1.99 ГБ | Добавлен: 06 май 2015
Раздают: 338    Качают: 26
Скачать торрент
Скачать торрент
Описание торрента

СообщениеДобавлено: 06 май 2015 


Информация о фильме
Название: Судьба человека
Год выхода: 1959
Жанр: Драма, Военный, Советское кино
Режиссер: Сергей Бондарчук
В ролях: Сергей Бондарчук, Павел Полунин, Зинаида Кириенко, Павел Волков, Юрий Аверин, Кирилл Алексеев, Павел Винников, Евгений Тетерин, Анатолий Чемодуров, Лев Борисов
О фильме:
Фильм рассказывает о русском солдате, которого война подвергла страшным испытаниям, лишила дома и семьи, бросила в концлагерь. Но судьба не сломила его дух - он выжил, отстоял своё право быть человеком, сохранил способность любить…

Страна: СССР

Качество: DVDRip (AVC)
Видео: MPEG-4 AVC, 2500 Кбит/с, 716x572@763x572
Аудио: AC3, 6 ch, 448 Кбит/с
Продолжительность: 01:36:37
Язык: Русский
Субтитры: Русские, английские
raw [info]: 716x572p 16:15 @ 25/1 fps (cfr)
x264 [info]: using SAR=16/15
x264 [info]: using cpu capabilities: MMX2 SSE2Fast SSSE3 SSE4.2 AVX
x264 [info]: profile High, level 4.1
x264 [info]: frame I:764 Avg QP:16.13 size: 59168
x264 [info]: frame P:38986 Avg QP:19.45 size: 24295
x264 [info]: frame B:105178 Avg QP:21.38 size: 7788
============================================================================================================
Общее
Уникальный идентификатор : 214895616927279141849945671910637346252 (0xA1AB63EE5B438B1D8C64C1E7F35E9DCC)
Полное имя : D:Судьба человека_1959-DVDRip-AVC.mkv
Формат : Matroska
Версия формата : Version 2
Размер файла : 1,99 Гбайт
Продолжительность : 1 ч. 36 м.
Общий поток : 2950 Кбит/сек
Дата кодирования : UTC 2015-02-07 09:15:13
Программа кодирования : mkvmerge v5.8.0 ('No Sleep / Pillow') built on Sep 2 2012 15:37:04
Библиотека кодирования : libebml v1.2.3 + libmatroska v1.3.0
Видео
Идентификатор : 1
Формат : AVC
Формат/Информация : Advanced Video Codec
Профиль формата : High@L4.1
Параметр CABAC формата : Да
Параметр ReFrames формата : 16 кадров
Идентификатор кодека : V_MPEG4/ISO/AVC
Продолжительность : 1 ч. 36 м.
Битрейт : 2500 Кбит/сек
Ширина : 716 пикселей
Высота : 572 пикселя
Соотношение сторон : 4:3
Соотношение сторон в оригинале : 4:3
Режим частоты кадров : Постоянный
Частота кадров : 25,000 кадров/сек
Цветовое пространство : YUV
Субдискретизация насыщенности : 4:2:0
Битовая глубина : 8 бит
Тип развёртки : Прогрессивная
Бит/(Пиксели*Кадры) : 0.244
Размер потока : 1,65 Гбайт (83%)
Библиотека кодирования : x264 core 130 r2273 b3065e6
Настройки программы : cabac=1 / ref=16 / deblock=1:-2:-2 / analyse=0x3:0x133 / me=umh / subme=10 / psy=1 / psy_rd=1.05:0.15 / mixed_ref=1 / me_range=32 / chroma_me=1 / trellis=2 / 8x8dct=1 / cqm=0 / deadzone=21,11 / fast_pskip=0 / chroma_qp_offset=-3 / threads=12 / lookahead_threads=2 / sliced_threads=0 / nr=0 / decimate=0 / interlaced=0 / bluray_compat=0 / constrained_intra=0 / bframes=7 / b_pyramid=2 / b_adapt=2 / b_bias=0 / direct=3 / weightb=1 / open_gop=0 / weightp=2 / keyint=250 / keyint_min=25 / scenecut=40 / intra_refresh=0 / rc=2pass / mbtree=0 / bitrate=2500 / ratetol=1.0 / qcomp=0.60 / qpmin=0 / qpmax=39 / qpstep=4 / cplxblur=20.0 / qblur=0.5 / ip_ratio=1.40 / pb_ratio=1.30 / aq=1:1.00
Язык : English
Default : Да
Forced : Нет
Основные цвета : BT.601 PAL
Характеристики трансфера : BT.470 System B, BT.470 System G
Коэффициенты матрицы : BT.601
colour_range : Limited
Аудио
Идентификатор : 2
Формат : AC-3
Формат/Информация : Audio Coding 3
Расширение режима : CM (complete main)
Параметр Endianness формата : Big
Идентификатор кодека : A_AC3
Продолжительность : 1 ч. 36 м.
Вид битрейта : Постоянный
Битрейт : 448 Кбит/сек
Каналы : 6 каналов
Расположение каналов : Front: L C R, Side: L R, LFE
Частота : 48,0 КГц
Битовая глубина : 16 бит
Метод сжатия : С потерями
Задержка видео : 400 мс.
Размер потока : 310 Мбайт (15%)
Язык : Russian
Default : Да
Forced : Нет
Текст #1
Идентификатор : 3
Формат : UTF-8
Идентификатор кодека : S_TEXT/UTF8
Идентификатор кодека/Информация : UTF-8 Plain Text
Язык : Russian
Default : Да
Forced : Нет
Текст #2
Идентификатор : 4
Формат : UTF-8
Идентификатор кодека : S_TEXT/UTF8
Идентификатор кодека/Информация : UTF-8 Plain Text
Язык : English
Default : Нет
Forced : Нет




Релиз от:
Автор релиза:
По просьбе автора релиза на kinozal не перезаливать.



   Похожие торренты   Торрент   Размер 
В этой теме нет новых непрочитанных сообщений. Судьба человека (1959) DVDRip

628 | 24

1.46 ГБ

В этой теме нет новых непрочитанных сообщений. Судьба человека (1959) DVDRip-AVC

56 | 10

1.43 ГБ

В этой теме нет новых непрочитанных сообщений. Судьба человека (1959) DVDRip от Русфильм

139 | 12

1.36 ГБ

В этой теме нет новых непрочитанных сообщений. Судьба человека (1959) DVD9

9 | 10

7.39 ГБ

В этой теме нет новых непрочитанных сообщений. Судьба человека: Выбор (2014) WEB-DL 720p

17 | 2

310.35 МБ

В этой теме нет новых непрочитанных сообщений. Михаил Шолохов - Судьба человека (2012) MP3

95 | 4

102.07 МБ

В этой теме нет новых непрочитанных сообщений. Судьба человека. Украденная красота (2016) VOD-DL 720p

33 | 8

585.36 МБ




Вы не можете начинать темы
Вы не можете отвечать на сообщения
Вы не можете редактировать свои сообщения
Вы не можете удалять свои сообщения
Вы не можете добавлять вложения

Перейти:  
Для Мосгорсуда, Роскомнадзора и рекламодателей: mosgorsud-torrent[собачка]yandex.ru
 Вход
ppkBB3cker v.2 © 2008-2014 @ PPK
[ Time : 0.623s | 15 Queries | GZIP : Off ]

Торрент трекер RUTOR.IN, Не можете зайти на rutor.org? Какой новый адрес рутор? Какое зеркало рутор? Не работает rutor.org и зеркала? Тогда наш торрент специально для вас. Rutor.in неофициальное зеркало rutor. В случае если у Вас заблокирован rutor или вдруг Вы не можете на него зайти, то Вы без труда сможете скачать бесплатно и без рекламы последние новинки кино, игр, сериалов и прочего у нас, на Rutor.in. Не нужно использовать прокси, чтобы зайти на рутор, достаточно воспользоваться нашим ресурсом. Все новые фильмы, игры, сериалы, книги и музыка за 2013 и 2014 годы через торрент бесплатно. Скачивайте фильмы в хорошем качестве, игры для пк, xbox, playstation без регистрации. У нас вы найдете новые Зарубежные сериалы и Русские сериалы 2013, 2014, 2015 годов. Оставайтесь с нами, качайте любимые фильмы, игры, сериалы, книги и музыку.
cron