img image001 image001 image001 image001 image001 image001 image001 image001 image001 image001 image001 image001 image001 image001 image001

Planets Sun Sun Sun
Статистика раздачи
Автор: Nickolas3434 | Размер: 1.46 ГБ | Добавлен: 06 май 2015
Раздают: 14    Качают: 5
Скачать торрент
Скачать торрент
Описание торрента

СообщениеДобавлено: 06 май 2015 

Страна: СССР
Производство: Мосфильм
Жанр: драма, военный, биография, история
Год выпуска: 1945
Продолжительность: 01:28:10
Перевод: Не требуется
Cубтитры: нет
Оригинальная аудиодорожка: русский
Режиссер: Всеволод Пудовкин
В ролях:
Алексей Дикий, Евгений Самойлов, Владимир Владиславский, Всеволод Пудовкин, Николай Чаплыгин, Василий Ковригин, Петр Соболевский, Леонид Князев, Александр Хохлов, Рубен Симонов, Павел Гайдебуров, Борис Оленин, Николай Бриллинг, Георгий Гумилевский, Глеб Рождественский, Константин Старостин, Николай Апарин, Эммануил Геллер, Ирина Радченко, Степан Каюков, Владимир Марута, Карл Гурняк...
Описание:
Историко-биографический фильм, посвященный знаменитому флотоводцу адмиралу Павлу Степановичу Нахимову. 18 ноября 1853 года на Синопском рейде Нахимов одержал блистательную победу над турецкой эскадрой Османа-паши. Смелый, благородный, дальновидный, Нахимов был одним из немногих, кто предвидел трагедию Крымской войны. Он с удивительной энергией руководил обороной Севастополя и героически погиб в одном из сражений…





Источник: DVD5 R5
Качество видео: DVDRip
Формат видео: AVI
Видео: 688x512 (4:3), 25 fps, XviD ~ 2165 kbps avg, 0.246 bit/pixel
Аудио: 48 kHz, Dolby Digital AC3 2.0, 192 kbps
Раздача от:
Общее
Полное имя : Admiral.Nahimov.1946.DVDRip_[New-team]_by_AVP_Studio.avi
Формат : AVI
Формат/Информация : Audio Video Interleave
Размер файла : 1,46 Гбайт
Продолжительность : 1 ч. 28 м.
Общий поток : 2366 Кбит/сек
Программа кодирования : VirtualDubModRus 1.5.10.2 (build 2542/release)
Библиотека кодирования : VirtualDubMod build 2542/release
Видео
Идентификатор : 0
Формат : MPEG-4 Visual
Профиль формата : Advanced Simple@L5
Параметр BVOP формата : 1
Параметр QPel формата : Нет
Параметр GMC формата : Без точки перехода
Параметр матрицы формата : Выборочная
Идентификатор кодека : XVID
Идентификатор кодека/Подсказка : XviD
Продолжительность : 1 ч. 28 м.
Битрейт : 2165 Кбит/сек
Ширина : 688 пикселей
Высота : 512 пикселей
Соотношение сторон : 4:3
Частота кадров : 25,000 кадров/сек
Цветовое пространство : YUV
Субдискретизация насыщенности : 4:2:0
Битовая глубина : 8 бит
Тип развёртки : Прогрессивная
Метод сжатия : С потерями
Бит/(Пиксели*Кадры) : 0.246
Размер потока : 1,33 Гбайт (91%)
Библиотека кодирования : XviD 73
Аудио
Идентификатор : 1
Формат : AC-3
Формат/Информация : Audio Coding 3
Расширение режима : CM (complete main)
Параметр Endianness формата : Big
Идентификатор кодека : 2000
Продолжительность : 1 ч. 28 м.
Вид битрейта : Постоянный
Битрейт : 192 Кбит/сек
Каналы : 2 канала
Расположение каналов : Front: L R
Частота : 48,0 КГц
Битовая глубина : 16 бит
Метод сжатия : С потерями
Размер потока : 121 Мбайт (8%)
Выравнивание : Разделение по промежуткам
Продолжительность промежутка : 40 мс. (1,00 видеокадр)
Время предзагрузки промежутка : 500 мс





   Похожие торренты   Торрент   Размер 
В этой теме нет новых непрочитанных сообщений. Адмирал Нахимов (1946) DVDRip от New-Team

9 | 9

743.59 МБ

В этой теме нет новых непрочитанных сообщений. Адмирал Нахимов (1946) DVDRip-AVC от New-Team

70 | 14

1.46 ГБ

В этой теме нет новых непрочитанных сообщений. Адмирал Нахимов (1946) DVDRip от KinoZalSat

341 | 22

1.36 ГБ

В этой теме нет новых непрочитанных сообщений. Адмирал Нахимов (1946) DVDRip от Русфильм

38 | 9

1.37 ГБ

В этой теме нет новых непрочитанных сообщений. Адмирал Ушаков (1953) DVDRip от New-Team

199 | 5

1.46 ГБ

В этой теме нет новых непрочитанных сообщений. Адмирал Ушаков (1953) DVDRip от New-Team

45 | 15

2.9 ГБ

В этой теме нет новых непрочитанных сообщений. Адмирал Ушаков (1953) DVDRip-AVC от New-Team

140 | 14

2.91 ГБ




Вы не можете начинать темы
Вы не можете отвечать на сообщения
Вы не можете редактировать свои сообщения
Вы не можете удалять свои сообщения
Вы не можете добавлять вложения

Перейти:  
Для Мосгорсуда, Роскомнадзора и рекламодателей: mosgorsud-torrent[собачка]yandex.ru
 Вход
ppkBB3cker v.2 © 2008-2014 @ PPK
[ Time : 0.039s | 16 Queries | GZIP : Off ]

cron