img image001 image001 image001 image001 image001 image001 image001 image001 image001 image001 image001 image001 image001 image001 image001

Planets Sun Sun Sun
Статистика раздачи
Автор: Nickolas3434 | Размер: 743.59 МБ | Добавлен: 06 май 2015
Раздают: 12    Качают: 11
Скачать торрент
Скачать торрент
Описание торрента

СообщениеДобавлено: 06 май 2015 

Страна: СССР
Производство: Мосфильм
Жанр: драма, военный, биография, история
Год выпуска: 1945
Продолжительность: 01:28:10
Перевод: Не требуется
Cубтитры: нет
Оригинальная аудиодорожка: русский
Режиссер: Всеволод Пудовкин
В ролях:
Алексей Дикий, Евгений Самойлов, Владимир Владиславский, Всеволод Пудовкин, Николай Чаплыгин, Василий Ковригин, Петр Соболевский, Леонид Князев, Александр Хохлов, Рубен Симонов, Павел Гайдебуров, Борис Оленин, Николай Бриллинг, Георгий Гумилевский, Глеб Рождественский, Константин Старостин, Николай Апарин, Эммануил Геллер, Ирина Радченко, Степан Каюков, Владимир Марута, Карл Гурняк...
Описание:
Историко-биографический фильм, посвященный знаменитому флотоводцу адмиралу Павлу Степановичу Нахимову. 18 ноября 1853 года на Синопском рейде Нахимов одержал блистательную победу над турецкой эскадрой Османа-паши. Смелый, благородный, дальновидный, Нахимов был одним из немногих, кто предвидел трагедию Крымской войны. Он с удивительной энергией руководил обороной Севастополя и героически погиб в одном из сражений…





Источник: DVD5 R5
Качество видео: DVDRip
Формат видео: AVI
Видео: 640x480 (4:3), 25 fps, XviD ~ 1042 kbps avg, 0.136 bit/pixel
Аудио: 48 kHz, MP3 2.0, 128 kbps
Раздача от:
Общее
Полное имя : Admiral.Nahimov.1946.DVDRip-745_[New-team]_by_AVP_Studio.avi
Формат : AVI
Формат/Информация : Audio Video Interleave
Размер файла : 744 Мбайт
Продолжительность : 1 ч. 28 м.
Общий поток : 1179 Кбит/сек
Программа кодирования : VirtualDubModRus 1.5.10.2 (build 2542/release)
Библиотека кодирования : VirtualDubMod build 2542/release
Видео
Идентификатор : 0
Формат : MPEG-4 Visual
Профиль формата : Advanced Simple@L5
Параметр BVOP формата : 1
Параметр QPel формата : Нет
Параметр GMC формата : Без точки перехода
Параметр матрицы формата : Выборочная
Идентификатор кодека : XVID
Идентификатор кодека/Подсказка : XviD
Продолжительность : 1 ч. 28 м.
Битрейт : 1042 Кбит/сек
Ширина : 640 пикселей
Высота : 480 пикселей
Соотношение сторон : 4:3
Частота кадров : 25,000 кадров/сек
Цветовое пространство : YUV
Субдискретизация насыщенности : 4:2:0
Битовая глубина : 8 бит
Тип развёртки : Прогрессивная
Метод сжатия : С потерями
Бит/(Пиксели*Кадры) : 0.136
Размер потока : 657 Мбайт (88%)
Библиотека кодирования : XviD 73
Аудио
Идентификатор : 1
Формат : MPEG Audio
Версия формата : Version 1
Профиль формата : Layer 3
Идентификатор кодека : 55
Идентификатор кодека/Подсказка : MP3
Продолжительность : 1 ч. 28 м.
Вид битрейта : Постоянный
Битрейт : 128 Кбит/сек
Каналы : 2 канала
Частота : 48,0 КГц
Метод сжатия : С потерями
Размер потока : 80,7 Мбайт (11%)
Выравнивание : Соединение по промежуткам
Продолжительность промежутка : 40 мс. (1,00 видеокадр)
Время предзагрузки промежутка : 504 мс.
Библиотека кодирования : LAME3.99r
Настройки программы : -m s -V 4 -q 2 -lowpass 17 -b 128





   Похожие торренты   Торрент   Размер 
В этой теме нет новых непрочитанных сообщений. Адмирал Нахимов (1946) DVDRip от New-Team

28 | 7

1.46 ГБ

В этой теме нет новых непрочитанных сообщений. Адмирал Нахимов (1946) DVDRip-AVC от New-Team

103 | 17

1.46 ГБ

В этой теме нет новых непрочитанных сообщений. Адмирал Нахимов (1946) DVDRip от KinoZalSat

339 | 22

1.36 ГБ

В этой теме нет новых непрочитанных сообщений. Адмирал Нахимов (1946) DVDRip от Русфильм

38 | 9

1.37 ГБ

В этой теме нет новых непрочитанных сообщений. Адмирал Ушаков (1953) DVDRip-AVC от New-Team

140 | 14

2.91 ГБ

В этой теме нет новых непрочитанных сообщений. Адмирал Ушаков (1953) DVDRip от New-Team

45 | 15

2.9 ГБ

В этой теме нет новых непрочитанных сообщений. Адмирал Ушаков (1953) DVDRip от New-Team

199 | 5

1.46 ГБ




Вы не можете начинать темы
Вы не можете отвечать на сообщения
Вы не можете редактировать свои сообщения
Вы не можете удалять свои сообщения
Вы не можете добавлять вложения

Перейти:  
Для Мосгорсуда, Роскомнадзора и рекламодателей: mosgorsud-torrent[собачка]yandex.ru
 Вход
ppkBB3cker v.2 © 2008-2014 @ PPK
[ Time : 0.564s | 15 Queries | GZIP : Off ]

Торрент трекер RUTOR.IN, Не можете зайти на rutor.org? Какой новый адрес рутор? Какое зеркало рутор? Не работает rutor.org и зеркала? Тогда наш торрент специально для вас. Rutor.in неофициальное зеркало rutor. В случае если у Вас заблокирован rutor или вдруг Вы не можете на него зайти, то Вы без труда сможете скачать бесплатно и без рекламы последние новинки кино, игр, сериалов и прочего у нас, на Rutor.in. Не нужно использовать прокси, чтобы зайти на рутор, достаточно воспользоваться нашим ресурсом. Все новые фильмы, игры, сериалы, книги и музыка за 2013 и 2014 годы через торрент бесплатно. Скачивайте фильмы в хорошем качестве, игры для пк, xbox, playstation без регистрации. У нас вы найдете новые Зарубежные сериалы и Русские сериалы 2013, 2014, 2015 годов. Оставайтесь с нами, качайте любимые фильмы, игры, сериалы, книги и музыку.