img image001 image001 image001 image001 image001 image001 image001 image001 image001 image001 image001 image001 image001 image001 image001

Planets Sun Sun Sun
Статистика раздачи
Автор: Nickolas3434 | Размер: 2.68 ГБ | Добавлен: 06 май 2015
Раздают: 383    Качают: 22
Скачать торрент
Скачать торрент
Описание торрента

СообщениеДобавлено: 06 май 2015 


Информация о фильме
Оригинальное название: Горячий снег
Год выхода: 1972
Жанр: Военный, драма
Режиссер: Гавриил Егиазаров
В ролях: Георгий Жженов, Анатолий Кузнецов, Вадим Спиридонов, Борис Токарев, Николай Еременко мл., Тамара Седельникова, Юрий Назаров, Араик Бабаджанян, Алексей Панькин, Валентин Грачев, Константин Тыртов, Михаил Стрелков, Александр Кавалеров, Альберт Дорожко, Болот Бейшеналиев, Игорь Ледогоров, Харий Швейц, Александр Зимин, Борис Сморчков, Анатолий Игнатков, Владлен Бирюков, Александр Аржиловский, Геннадий Корольков, Лев Золотухин, Валерий Лущевский, Владимир Протасенко, Александр Воеводин, Борис Руднев, Александр Лебедев, Михаил Бочаров, Павел Сиротин, Олег Михайлов, Владимир Козелков, Вадим Власов
О фильме:
Героическая драма по одноименному роману Юрия Бондарева. Фильм рассказывает только об одном сражении Великой Отечественной в великой битве на Волге, о судьбе советских солдат и офицеров, которые ценой собственных жизней не пропустили вражеские танки. В этом фильме Великая Отечественная война предстала поистине войной народной, а в кадр проникли походные жены, никчемные смерти, отставшие кухни, наркомовские сто грамм, похоронные команды и такой стыд, как Вторая ударная армия, в которой сгинул без вести сын генерала Бессонова, самого, пожалуй, убедительного военачальника советского экрана в несравненном исполнении Георгия Жженова. …И навсегда останется в памяти его скупая, от избытка нахлынувших чувств, фраза: «Все, что могу! » и кадр, когда семеро оставшихся от полка в раскуроченной воронке топтались, плакали и заливали свежие ордена пайковым спиртом...

Страна: СССР, Мосфильм

Файл
Качество: HDTVRip (AVC)
Видео: MPEG-4 AVC, 3500 Кбит/с, 1156x492
Аудио: AC3, 2 ch, 384 Кбит/с
Продолжительность: 01:38:50
Язык: Русский
raw [info]: 1156x492p 1:1 @ 25/1 fps (cfr)
x264 [info]: using SAR=1/1
x264 [info]: using cpu capabilities: MMX2 SSE2Fast SSSE3 SSE4.2 AVX
x264 [info]: profile High, level 4.1
x264 [info]: frame I:782 Avg QP:16.00 size:105948
x264 [info]: frame P:38121 Avg QP:19.03 size: 38574
x264 [info]: frame B:109350 Avg QP:20.73 size: 9522
=========================================================================================================
Общее
Уникальный идентификатор : 230463503082664192899965441071314269164 (0xAD61A7FA985ABFB99D5A7F6B7F6E73EC)
Полное имя : D:Горячий снег_1972-HDTVRip-AVC.mkv
Формат : Matroska
Версия формата : Version 2
Размер файла : 2,68 Гбайт
Продолжительность : 1 ч. 38 м.
Общий поток : 3886 Кбит/сек
Дата кодирования : UTC 2015-05-04 15:03:29
Программа кодирования : mkvmerge v5.8.0 ('No Sleep / Pillow') built on Sep 2 2012 15:37:04
Библиотека кодирования : libebml v1.2.3 + libmatroska v1.3.0
Видео
Идентификатор : 1
Формат : AVC
Формат/Информация : Advanced Video Codec
Профиль формата : High@L4.1
Параметр CABAC формата : Да
Параметр ReFrames формата : 13 кадров
Идентификатор кодека : V_MPEG4/ISO/AVC
Продолжительность : 1 ч. 38 м.
Битрейт : 3500 Кбит/сек
Ширина : 1156 пикселей
Высота : 492 пикселя
Соотношение сторон : 2,35:1
Режим частоты кадров : Постоянный
Частота кадров : 25,000 кадров/сек
Цветовое пространство : YUV
Субдискретизация насыщенности : 4:2:0
Битовая глубина : 8 бит
Тип развёртки : Прогрессивная
Бит/(Пиксели*Кадры) : 0.246
Размер потока : 2,36 Гбайт (88%)
Библиотека кодирования : x264 core 142 r2431 ac76440
Настройки программы : cabac=1 / ref=13 / deblock=1:-2:-2 / analyse=0x3:0x113 / me=umh / subme=10 / psy=1 / psy_rd=1.05:0.17 / mixed_ref=1 / me_range=32 / chroma_me=1 / trellis=2 / 8x8dct=1 / cqm=0 / deadzone=21,11 / fast_pskip=0 / chroma_qp_offset=-3 / threads=12 / lookahead_threads=2 / sliced_threads=0 / nr=0 / decimate=0 / interlaced=0 / bluray_compat=0 / constrained_intra=0 / bframes=7 / b_pyramid=2 / b_adapt=2 / b_bias=0 / direct=3 / weightb=1 / open_gop=0 / weightp=2 / keyint=250 / keyint_min=25 / scenecut=40 / intra_refresh=0 / rc=2pass / mbtree=0 / bitrate=3500 / ratetol=1.0 / qcomp=0.65 / qpmin=0 / qpmax=39 / qpstep=4 / cplxblur=20.0 / qblur=0.5 / ip_ratio=1.40 / pb_ratio=1.30 / aq=1:1.00
Язык : English
Default : Да
Forced : Нет
Основные цвета : BT.709
Характеристики трансфера : BT.709
Коэффициенты матрицы : BT.709
colour_range : Limited
Аудио
Идентификатор : 2
Формат : AC-3
Формат/Информация : Audio Coding 3
Расширение режима : CM (complete main)
Параметр Endianness формата : Big
Идентификатор кодека : A_AC3
Продолжительность : 1 ч. 38 м.
Вид битрейта : Постоянный
Битрейт : 384 Кбит/сек
Каналы : 2 канала
Расположение каналов : Front: L R
Частота : 48,0 КГц
Битовая глубина : 16 бит
Метод сжатия : С потерями
Размер потока : 271 Мбайт (10%)
Язык : Russian
Default : Да
Forced : Нет




Релиз от:
Автор релиза:



   Похожие торренты   Торрент   Размер 
В этой теме нет новых непрочитанных сообщений. Горячий снег (1972) DVDRip от ExKinoRay

164 | 17

1.47 ГБ

В этой теме нет новых непрочитанных сообщений. Горячий снег (1972) DVDRip-AVC

68 | 7

1.34 ГБ

В этой теме нет новых непрочитанных сообщений. Горячий снег (1972) HDTV 1080i

219 | 16

6.36 ГБ

В этой теме нет новых непрочитанных сообщений. Горячий снег (1972) DVDRip от Русфильм

74 | 8

1.37 ГБ

В этой теме нет новых непрочитанных сообщений. Горячий снег (1972) DVDRip-AVC от konstantin49

92 | 22

2.07 ГБ

В этой теме нет новых непрочитанных сообщений. Горячий снег (1974) DVDRip-AVC by FREEISLAND

307 | 47

1.62 ГБ

В этой теме нет новых непрочитанных сообщений. Белый, как снег / Бел, как снег / Blanc comme neige (1948) DVDRip от Files-x

1 | 5

1.37 ГБ




Вы не можете начинать темы
Вы не можете отвечать на сообщения
Вы не можете редактировать свои сообщения
Вы не можете удалять свои сообщения
Вы не можете добавлять вложения

Перейти:  
Для Мосгорсуда, Роскомнадзора и рекламодателей: mosgorsud-torrent[собачка]yandex.ru
 Вход
ppkBB3cker v.2 © 2008-2014 @ PPK
[ Time : 0.522s | 15 Queries | GZIP : Off ]

Торрент трекер RUTOR.IN, Не можете зайти на rutor.org? Какой новый адрес рутор? Какое зеркало рутор? Не работает rutor.org и зеркала? Тогда наш торрент специально для вас. Rutor.in неофициальное зеркало rutor. В случае если у Вас заблокирован rutor или вдруг Вы не можете на него зайти, то Вы без труда сможете скачать бесплатно и без рекламы последние новинки кино, игр, сериалов и прочего у нас, на Rutor.in. Не нужно использовать прокси, чтобы зайти на рутор, достаточно воспользоваться нашим ресурсом. Все новые фильмы, игры, сериалы, книги и музыка за 2013 и 2014 годы через торрент бесплатно. Скачивайте фильмы в хорошем качестве, игры для пк, xbox, playstation без регистрации. У нас вы найдете новые Зарубежные сериалы и Русские сериалы 2013, 2014, 2015 годов. Оставайтесь с нами, качайте любимые фильмы, игры, сериалы, книги и музыку.