img image001 image001 image001 image001 image001 image001 image001 image001 image001 image001 image001 image001 image001 image001 image001

Planets Sun Sun Sun
Статистика раздачи
Автор: Nickolas3434 | Размер: 2.9 ГБ | Добавлен: 07 май 2015
Раздают: 186    Качают: 18
Скачать торрент
Скачать торрент
Описание торрента

СообщениеДобавлено: 07 май 2015 


Информация о фильме
Название: Мы из будущего
Год выхода: 2008
Жанр: Военный, фантастика
Режиссер: Андрей Малюков
В ролях: Данила Козловский, Владимир Яглыч, Андрей Терентьев, Дмитрий Волкострелов, Екатерина Климова, Борис Галкин, Даниил Страхов, Сергей Маховиков, Игорь Черневич, Ральф Шиха, Зоя Буряк, Сергей Мухин, Анатолий Пашинин, Николай Горбунов, Тамара Спиричева, Лидия Доротенко
О фильме: Четверо ребят, наших современников, связаны общим делом: они ищут и продают боевые трофеи времен Второй мировой войны, зарабатывая тем самым неплохие деньги. Их называют "черными копателями". Лидер в этой компании – Борман. Он выбирает место для раскопок, читает много книг, написанных участниками военных событий. Череп - скинхед, мечтающий найти немецкое оружие. Спирт - современный музыкант, ему просто нужны деньги, чтобы заниматься любимым делом, а Чуха - компьютерщик, подсевший на виртуальные игры. Однажды на очередном месте раскопок происходит нечто странное: в блиндаже времен войны ребята обнаруживают солдатские книжки. С фотографий на них глядят… они сами! Пытаясь прийти в себя и надеясь, что увиденное примерещилось им в результате теплового удара, парни отправляются купаться. Таинственное озеро перемещает их в далекое прошлое, на 65 лет назад. Молодые люди выныривают и оказываются в эпицентре боевых действий 1942 года. Им предстоит пережить немало приключений, найти и потерять любовь, проверить свою дружбу, узнать настоящую цену жизни и по-новому взглянуть на трагические страницы в истории своей родины...
Доп.информация: Исходник DVB. Телеверсия. Длиннее обычной киноверсии на ~ 47 минут. На DVD не выпускалась

Страна: Россия
Студия: А-1 Кино Видео
Продолжительность: 02:42:33
Перевод: Не требуется (оригинальный)
Файл
Формат: avi
Качество: SATRip (DVB)
Видео: XviD, 720x384, 25fps, 2352kbps
Аудио: AC3 Dolby Digital, 2ch, 48000Hz, 192kbps

General
Complete name : My.Iz.Buduschego.1.2008.O.SATRip.2800.TV.MediaClub.CurHaJI.avi
Format : AVI
Format/Info : Audio Video Interleave
Format profile : OpenDML
File size : 2.90 GiB
Duration : 2h 42mn
Overall bit rate : 2 555 Kbps
Movie name : My.Iz.Buduschego.1.2008.O.SATRip.2800.TV.MediaClub.CurHaJI
Writing library : VirtualDub build 35491/release
Video
ID : 0
Format : MPEG-4 Visual
Format profile : Advanced Simple@L5
Format settings, BVOP : 1
Format settings, QPel : No
Format settings, GMC : No warppoints
Format settings, Matrix : Custom
Codec ID : XVID
Codec ID/Hint : XviD
Duration : 2h 42mn
Bit rate : 2 352 Kbps
Width : 720 pixels
Height : 384 pixels
Display aspect ratio : 1.85:1
Frame rate : 25.000 fps
Color space : YUV
Chroma subsampling : 4:2:0
Bit depth : 8 bits
Scan type : Progressive
Compression mode : Lossy
Bits/(Pixel*Frame) : 0.340
Stream size : 2.67 GiB (92%)
Writing library : XviD 1.2.1 (UTC 2008-12-04)
Audio
ID : 1
Format : AC-3
Format/Info : Audio Coding 3
Mode extension : CM (complete main)
Format settings, Endianness : Big
Codec ID : 2000
Duration : 2h 42mn
Bit rate mode : Constant
Bit rate : 192 Kbps
Channel(s) : 2 channels
Channel positions : Front: L R
Sampling rate : 48.0 KHz
Bit depth : 16 bits
Compression mode : Lossy
Stream size : 223 MiB (8%)
Alignment : Split accross interleaves
Interleave, duration : 40 ms (1.00 video frame)
Interleave, preload duration : 500 ms



Релиз от:



   Похожие торренты   Торрент   Размер 
В этой теме нет новых непрочитанных сообщений. Мы из будущего (2008) SATRip | режиссёрская версия

89 | 17

2.06 ГБ

В этой теме нет новых непрочитанных сообщений. Василиса [01-04 из 04] (2015) WEB-DL 720p от MediaClub | Расширенная Телеверсия

100 | 16

7.24 ГБ

В этой теме нет новых непрочитанных сообщений. Они сражались за Родину (1975) HDTVRip от MediaClub | Телеверсия

38 | 2

1.45 ГБ

В этой теме нет новых непрочитанных сообщений. Саранча [01 из 04] (2013) HDTV 1080i от MediaClub | Расширенная Телеверсия

118 | 72

6 ГБ

В этой теме нет новых непрочитанных сообщений. Адмиралъ (2008) BDRip от HQ-ViDEO | Телеверсия

16 | 12

8.74 ГБ

В этой теме нет новых непрочитанных сообщений. Адмиралъ [01-10 из 10] (2008) BDRip 720p | Телеверсия

200 | 28

29.99 ГБ

В этой теме нет новых непрочитанных сообщений. Адмирал / Адмиралъ [Телеверсия] (2008) BDRip от HQCLUB

216 | 38

8.75 ГБ




Вы не можете начинать темы
Вы не можете отвечать на сообщения
Вы не можете редактировать свои сообщения
Вы не можете удалять свои сообщения
Вы не можете добавлять вложения

Перейти:  
Для Мосгорсуда, Роскомнадзора и рекламодателей: mosgorsud-torrent[собачка]yandex.ru
 Вход
ppkBB3cker v.2 © 2008-2014 @ PPK
[ Time : 0.032s | 17 Queries | GZIP : Off ]

Торрент трекер RUTOR.IN, Не можете зайти на rutor.org? Какой новый адрес рутор? Какое зеркало рутор? Не работает rutor.org и зеркала? Тогда наш торрент специально для вас. Rutor.in неофициальное зеркало rutor. В случае если у Вас заблокирован rutor или вдруг Вы не можете на него зайти, то Вы без труда сможете скачать бесплатно и без рекламы последние новинки кино, игр, сериалов и прочего у нас, на Rutor.in. Не нужно использовать прокси, чтобы зайти на рутор, достаточно воспользоваться нашим ресурсом. Все новые фильмы, игры, сериалы, книги и музыка за 2013 и 2014 годы через торрент бесплатно. Скачивайте фильмы в хорошем качестве, игры для пк, xbox, playstation без регистрации. У нас вы найдете новые Зарубежные сериалы и Русские сериалы 2013, 2014, 2015 годов. Оставайтесь с нами, качайте любимые фильмы, игры, сериалы, книги и музыку.
cron