img image001 image001 image001 image001 image001 image001 image001 image001 image001 image001 image001 image001 image001 image001 image001

Planets Sun Sun Sun
Статистика раздачи
Автор: Nickolas3434 | Размер: 745.27 МБ | Добавлен: 11 май 2015
Раздают: 237    Качают: 3
Скачать торрент
Скачать торрент
Описание торрента

СообщениеДобавлено: 11 май 2015 


Информация о фильме
Название: Отец поневоле
Год выхода: 2013
Жанр: Мелодрама
Режиссер: Фуад Шабанов
В ролях: Игорь Ботвин, Анна Попова, Виктория Стивина, Ольга Кирсанова, Валерий Афанасьев, Алла Вербицкая, Яна Сухова
О фильме:
В России десять миллионов детей растут без отца. Кто-то – долгие годы таит обиду, а кто-то – больше всего на свете мечтает о встрече. По-разному ведут себя и матери брошенных детей. Одни пытаются добиться признания отцовства через суд. Другие, наоборот, стараются вычеркнуть из жизни отца своего ребенка. Большинство самих мужчин - не торопится признавать свое отцовство. Но и есть и такие, которые признают свои ошибки. И своих детей.
Страна: Россия
Студия: Вайт Медиа
Продолжительность: 01:29:55
Перевод: Не требуется
Файл
Кодек: XviD
Качество: HDTVRip
Видео: 624x336 (1.86:1), 25 fps, XviD build 73 ~1020 kbps avg, 0.19 bit/pixel
Звук: 48 kHz, MPEG Layer 3, 2 ch, ~128.00 kbps avg
Субтитры: Отсутствует
Семпл

General
Complete name : D:ТоррентМОИ РИПЫОтец по неволеОтец_по_неволе.2013.HDTVRip.от Шкипер.avi
Format : AVI
Format/Info : Audio Video Interleave
File size : 745 MiB
Duration : 1h 29mn
Overall bit rate : 1 159 Kbps
Writing application : VirtualDubMod 1.5.10.3 | www.virtualdub-fr.org || (build 2550/release)
Writing library : VirtualDubMod build 2550/release
Video
ID : 0
Format : MPEG-4 Visual
Format profile : Advanced Simple@L5
Format settings, BVOP : Yes
Format settings, QPel : No
Format settings, GMC : No warppoints
Format settings, Matrix : Default (MPEG)
Codec ID : XVID
Codec ID/Hint : XviD
Duration : 1h 29mn
Bit rate : 1 021 Kbps
Width : 624 pixels
Height : 336 pixels
Display aspect ratio : 1.857
Frame rate : 25.000 fps
Color space : YUV
Chroma subsampling : 4:2:0
Bit depth : 8 bits
Scan type : Progressive
Compression mode : Lossy
Bits/(Pixel*Frame) : 0.195
Stream size : 657 MiB (88%)
Writing library : XviD 73
Audio
ID : 1
Format : MPEG Audio
Format version : Version 1
Format profile : Layer 3
Mode : Joint stereo
Codec ID : 55
Codec ID/Hint : MP3
Duration : 1h 29mn
Bit rate mode : Constant
Bit rate : 128 Kbps
Channel(s) : 2 channels
Sampling rate : 48.0 KHz
Compression mode : Lossy
Stream size : 82.3 MiB (11%)
Alignment : Aligned on interleaves
Interleave, duration : 40 ms (1.00 video frame)
Interleave, preload duration : 504 ms
Writing library : LAME3.99r
Encoding settings : -m j -V 4 -q 2 -lowpass 17 -b 128

Релиз от:
Автор Рипа:



   Похожие торренты   Торрент   Размер 
В этой теме нет новых непрочитанных сообщений. Отец поневоле (2013) HDTVRip от Files-x

642 | 41

1.37 ГБ

В этой теме нет новых непрочитанных сообщений. Отец поневоле (2013) HDTVRip 720p от MediaClub

228 | 13

2.43 ГБ

В этой теме нет новых непрочитанных сообщений. Отец поневоле (2013) SATRip

177 | 12

1.25 ГБ

В этой теме нет новых непрочитанных сообщений. Альпинисты (2013) HDTVRip от Шкипер

43 | 4

744.74 МБ

В этой теме нет новых непрочитанных сообщений. Гость (2013) HDTVRip от Шкипер

93 | 12

745.21 МБ

В этой теме нет новых непрочитанных сообщений. Жажда (2013) HDTVRip от Шкипер

136 | 8

745.64 МБ

В этой теме нет новых непрочитанных сообщений. Шутки ангела (2013) HDTVRip от Шкипер

53 | 10

745.09 МБ




Вы не можете начинать темы
Вы не можете отвечать на сообщения
Вы не можете редактировать свои сообщения
Вы не можете удалять свои сообщения
Вы не можете добавлять вложения

Перейти:  
Для Мосгорсуда, Роскомнадзора и рекламодателей: mosgorsud-torrent[собачка]yandex.ru
 Вход
ppkBB3cker v.2 © 2008-2014 @ PPK
[ Time : 0.105s | 16 Queries | GZIP : Off ]

Торрент трекер RUTOR.IN, Не можете зайти на rutor.org? Какой новый адрес рутор? Какое зеркало рутор? Не работает rutor.org и зеркала? Тогда наш торрент специально для вас. Rutor.in неофициальное зеркало rutor. В случае если у Вас заблокирован rutor или вдруг Вы не можете на него зайти, то Вы без труда сможете скачать бесплатно и без рекламы последние новинки кино, игр, сериалов и прочего у нас, на Rutor.in. Не нужно использовать прокси, чтобы зайти на рутор, достаточно воспользоваться нашим ресурсом. Все новые фильмы, игры, сериалы, книги и музыка за 2013 и 2014 годы через торрент бесплатно. Скачивайте фильмы в хорошем качестве, игры для пк, xbox, playstation без регистрации. У нас вы найдете новые Зарубежные сериалы и Русские сериалы 2013, 2014, 2015 годов. Оставайтесь с нами, качайте любимые фильмы, игры, сериалы, книги и музыку.