img image001 image001 image001 image001 image001 image001 image001 image001 image001 image001 image001 image001 image001 image001 image001

Planets Sun Sun Sun
Статистика раздачи
Автор: Nickolas3434 | Размер: 2.18 ГБ | Добавлен: 14 май 2015
Раздают: 9    Качают: 8
Скачать торрент
Скачать торрент
Описание торрента

СообщениеДобавлено: 14 май 2015 

Страна: СССР
Производство: Киевская киностудия
Жанр: драма
Год выпуска: 1939, 1946
Продолжительность: 03:13:10 (01:32:21 + 01:40:49)
Перевод: Не требуется
Cубтитры: нет
Оригинальная аудиодорожка: русский
Режиссер: Леонид Луков
В ролях:
Иван Пельтцер (...Козодоев), Вера Шершнева (...Соня Осипова), Лидия Карташова (...Козодоева), Борис Андреев (...Харитон Балун), Марк Бернес (...Петухов), Петр Алейников (...Ваня Курский), Лидия Смирнова (...Женя Буслаева), Лаврентий Масоха (...Лаготин), Владимир Уральский, Василий Зайчиков, Алексей Краснопольский (...парторг), Александра Попова (...Зина), Сергей Блинников (...начальник комбината), Владимир Дорофеев, Алексей Консовский, Иван Новосельцев, Степан Каюков (...Усынин), Юрий Лавров (...Кузьмин)...

Кинороман о горняках Донбасса 30-х годов, о движении новаторов и их борьбе с диверсантами. Вторая серия это драматическая история восстановления шахт после освобождения Донбасса от фашистов в годы Второй Мировой войны.





Источник: DVB, DVD9 R5
Качество видео: SATRip, DVDRip
Формат видео: AVI
Видео: 688x512 (4:3), 25 fps, XviD ~ 1413 kbps avg, 0.160 bit/pixel Первая серия SATRip
Видео: 704x528 (4:3), 25 fps, XviD ~ 1413 kbps avg, 0.152 bit/pixel Вторая серия DVDRip
Аудио: 48 kHz, Dolby Digital AC3 2.0, 192 kbps
Раздача от:
Общее
Полное имя : Bolshaya.zhizn.1938.1946.SATRip_[New-team]_by_AVP_Studio.avi
Формат : AVI
Формат/Информация : Audio Video Interleave
Размер файла : 1,04 Гбайт
Продолжительность : 1 ч. 32 м.
Общий поток : 1615 Кбит/сек
Программа кодирования : VirtualDubModRus 1.5.10.2 (build 2542/release)
Библиотека кодирования : VirtualDubMod build 2542/release
Видео
Идентификатор : 0
Формат : MPEG-4 Visual
Профиль формата : Advanced Simple@L5
Параметр BVOP формата : 1
Параметр QPel формата : Нет
Параметр GMC формата : Без точки перехода
Параметр матрицы формата : Выборочная
Идентификатор кодека : XVID
Идентификатор кодека/Подсказка : XviD
Продолжительность : 1 ч. 32 м.
Битрейт : 1413 Кбит/сек
Ширина : 688 пикселей
Высота : 512 пикселей
Соотношение сторон : 4:3
Частота кадров : 25,000 кадров/сек
Цветовое пространство : YUV
Субдискретизация насыщенности : 4:2:0
Битовая глубина : 8 бит
Тип развёртки : Прогрессивная
Метод сжатия : С потерями
Бит/(Пиксели*Кадры) : 0.160
Размер потока : 933 Мбайт (88%)
Библиотека кодирования : XviD 73
Аудио
Идентификатор : 1
Формат : AC-3
Формат/Информация : Audio Coding 3
Расширение режима : CM (complete main)
Параметр Endianness формата : Big
Идентификатор кодека : 2000
Продолжительность : 1 ч. 32 м.
Вид битрейта : Постоянный
Битрейт : 192 Кбит/сек
Каналы : 2 канала
Расположение каналов : Front: L R
Частота : 48,0 КГц
Битовая глубина : 16 бит
Метод сжатия : С потерями
Размер потока : 127 Мбайт (12%)
Выравнивание : Разделение по промежуткам
Продолжительность промежутка : 40 мс. (1,00 видеокадр)
Время предзагрузки промежутка : 500 мс




Общее
Полное имя : Bolshaya.zhizn.1938.1946.DVDRip_[New-team]_by_AVP_Studio.avi
Формат : AVI
Формат/Информация : Audio Video Interleave
Размер файла : 1,14 Гбайт
Продолжительность : 1 ч. 40 м.
Общий поток : 1615 Кбит/сек
Программа кодирования : VirtualDubModRus 1.5.10.2 (build 2542/release)
Библиотека кодирования : VirtualDubMod build 2542/release
Видео
Идентификатор : 0
Формат : MPEG-4 Visual
Профиль формата : Advanced Simple@L5
Параметр BVOP формата : 1
Параметр QPel формата : Нет
Параметр GMC формата : Без точки перехода
Параметр матрицы формата : Выборочная
Идентификатор кодека : XVID
Идентификатор кодека/Подсказка : XviD
Продолжительность : 1 ч. 40 м.
Битрейт : 1413 Кбит/сек
Ширина : 704 пикселя
Высота : 528 пикселей
Соотношение сторон : 4:3
Частота кадров : 25,000 кадров/сек
Цветовое пространство : YUV
Субдискретизация насыщенности : 4:2:0
Битовая глубина : 8 бит
Тип развёртки : Прогрессивная
Метод сжатия : С потерями
Бит/(Пиксели*Кадры) : 0.152
Размер потока : 1019 Мбайт (88%)
Библиотека кодирования : XviD 73
Аудио
Идентификатор : 1
Формат : AC-3
Формат/Информация : Audio Coding 3
Расширение режима : CM (complete main)
Параметр Endianness формата : Big
Идентификатор кодека : 2000
Продолжительность : 1 ч. 40 м.
Вид битрейта : Постоянный
Битрейт : 192 Кбит/сек
Каналы : 2 канала
Расположение каналов : Front: L R
Частота : 48,0 КГц
Битовая глубина : 16 бит
Метод сжатия : С потерями
Размер потока : 138 Мбайт (12%)
Выравнивание : Разделение по промежуткам
Продолжительность промежутка : 40 мс. (1,00 видеокадр)
Время предзагрузки промежутка : 500 мс





   Похожие торренты   Торрент   Размер 
В этой теме нет новых непрочитанных сообщений. Большая жизнь (1939, 1946) SATRip-AVC, DVDRip-AVC от New-Team

108 | 68

2.18 ГБ

В этой теме нет новых непрочитанных сообщений. Большая жизнь (1939, 1946) SATRip, DVDRip от New-Team

24 | 16

1.46 ГБ

В этой теме нет новых непрочитанных сообщений. Эта замечательная жизнь / It's a Wonderful Life (1946) BDRip 720p от NOLIMITS-TEAM

10 | 2

2.22 ГБ

В этой теме нет новых непрочитанных сообщений. Мойдодыр (1939,1954), Тараканище, Федорино горе, От двух до пяти, Ваня и крокодил, Краденое солнце (1939-1984) DVDRip от New-Team

397 | 34

1.45 ГБ

В этой теме нет новых непрочитанных сообщений. Мойдодыр (1939,1954), Тараканище, Федорино горе, От двух до пяти, Ваня и крокодил, Краденое солнце (1939-1984) DVDRip от New-Team

568 | 33

744.47 МБ

В этой теме нет новых непрочитанных сообщений. Мойдодыр (1939,1954), Тараканище, Федорино горе, От двух до пяти, Ваня и крокодил, Краденое солнце (1939-1984) DVDRip-AVC от New-Team

417 | 39

1.46 ГБ

В этой теме нет новых непрочитанных сообщений. Эта замечательная жизнь (Эта прекрасная жизнь) / It's a Wonderful Life (1946) BDRip [720p] от HQ-ViDEO

95 | 5

4.37 ГБ




Вы не можете начинать темы
Вы не можете отвечать на сообщения
Вы не можете редактировать свои сообщения
Вы не можете удалять свои сообщения
Вы не можете добавлять вложения

Перейти:  
Для Мосгорсуда, Роскомнадзора и рекламодателей: mosgorsud-torrent[собачка]yandex.ru
 Вход
ppkBB3cker v.2 © 2008-2014 @ PPK
[ Time : 0.023s | 15 Queries | GZIP : Off ]

Торрент трекер RUTOR.IN, Не можете зайти на rutor.org? Какой новый адрес рутор? Какое зеркало рутор? Не работает rutor.org и зеркала? Тогда наш торрент специально для вас. Rutor.in неофициальное зеркало rutor. В случае если у Вас заблокирован rutor или вдруг Вы не можете на него зайти, то Вы без труда сможете скачать бесплатно и без рекламы последние новинки кино, игр, сериалов и прочего у нас, на Rutor.in. Не нужно использовать прокси, чтобы зайти на рутор, достаточно воспользоваться нашим ресурсом. Все новые фильмы, игры, сериалы, книги и музыка за 2013 и 2014 годы через торрент бесплатно. Скачивайте фильмы в хорошем качестве, игры для пк, xbox, playstation без регистрации. У нас вы найдете новые Зарубежные сериалы и Русские сериалы 2013, 2014, 2015 годов. Оставайтесь с нами, качайте любимые фильмы, игры, сериалы, книги и музыку.