img image001 image001 image001 image001 image001 image001 image001 image001 image001 image001 image001 image001 image001 image001 image001

Planets Sun Sun Sun
Статистика раздачи
Автор: Nickolas3434 | Размер: 2.73 ГБ | Добавлен: 14 май 2015
Раздают: 171    Качают: 20
Скачать торрент
Скачать торрент
Описание торрента

СообщениеДобавлено: 14 май 2015 


Информация о фильме
Название: Они сражались за Родину
Год выхода: 1975
Жанр: Военный, драма
Режиссер: Сергей Бондарчук
В ролях: Василий Шукшин, Вячеслав Тихонов, Сергей Бондарчук, Георгий Бурков, Юрий Никулин, Иван Лапиков, Николай Губенко, Андрей Ростоцкий, Николай Волков, Николай Шутько, Евгений Самойлов, Нонна Мордюкова, Иннокентий Смоктуновский, Ангелина Степанова, Ирина Скобцева, Татьяна Божок, Лидия Федосеева-Шукшина, Даниил Ильченко, Алексей Ванин, Николай Горлов, Геннадий Сафронов, Борис Никифоров, Анатолий Переверзев, Виталий Леонов, Михаил Чигарев, Станислав Бородокин, Леонид Трутнев, Пётр Меркурьев, Алексей Коняшин, Владимир Мышкин, Юнус Юсупов, Хашим Рахимов, Ермахмад Аралев, Александр Безыментов, Игорь Кузнецов, Виктор Волков, Коля Ефремов, Андрей Попов
О фильме: Июль 1942 года, Великая Отечественная война. На подступах к Сталинграду обескровленные, измотанные советские войска ведут тяжелые оборонительные бои, неся огромные потери. Небольшое стрелковое подразделение под командованием капитана Сумскова получило приказ: под огнём вражеской авиации и артиллерии обеспечить переправу через Дон советских воинских частей. На дороге - широкие следы танковых гусениц, чётко отпечатанные в серой пыли. А по сторонам - словно вымершая от зноя степь: устало полёгшие травы, тускло блестящие солончаки, голубое трепетное марево над дальними курганами. Четыре дня стояли насмерть у степного хутора солдаты - Стрельцов, Лопахин, Звягинцев - люди мирных профессий, которых война заставила надеть шинели...
Доп.информация: Исходник HDTVRip.720p. Полная версия. Длиннее обычной киноверсии на ~ 14 минут

Страна: СССР
Студия: Мосфильм
Продолжительность: 02:30:28
Перевод: Не требуется (оригинальный)
Файл
Формат: avi
Качество: HDTVRip (HDTVRip.720p)
Видео: XviD, 720x464, 25fps, 2398kbps
Аудио: AC3 Dolby Digital, 2ch, 48000Hz, 192kbps

General
Complete name : Oni.Srazhalis.Za.Rodinu.1975.O.HDTVRip.2800.MediaClub.CurHaJI.avi
Format : AVI
Format/Info : Audio Video Interleave
Format profile : OpenDML
File size : 2.73 GiB
Duration : 2h 30mn
Overall bit rate : 2 601 Kbps
Movie name : Oni.Srazhalis.Za.Rodinu.1975.O.HDTVRip.2800.MediaClub.CurHaJI
Writing application : Lavf53.13.0
Writing library : VirtualDub build 35491/release
Video
ID : 0
Format : MPEG-4 Visual
Format profile : Advanced Simple@L5
Format settings, BVOP : 2
Format settings, QPel : No
Format settings, GMC : No warppoints
Format settings, Matrix : Custom
Codec ID : XVID
Codec ID/Hint : XviD
Duration : 2h 30mn
Bit rate : 2 398 Kbps
Width : 720 pixels
Height : 464 pixels
Display aspect ratio : 1.552
Frame rate : 25.000 fps
Color space : YUV
Chroma subsampling : 4:2:0
Bit depth : 8 bits
Scan type : Progressive
Compression mode : Lossy
Bits/(Pixel*Frame) : 0.287
Stream size : 2.52 GiB (92%)
Writing library : XviD 64
Audio
ID : 1
Format : AC-3
Format/Info : Audio Coding 3
Mode extension : CM (complete main)
Format settings, Endianness : Big
Codec ID : 2000
Duration : 2h 30mn
Bit rate mode : Constant
Bit rate : 192 Kbps
Channel(s) : 2 channels
Channel positions : Front: L R
Sampling rate : 48.0 KHz
Bit depth : 16 bits
Compression mode : Lossy
Stream size : 207 MiB (7%)
Alignment : Aligned on interleaves
Interleave, duration : 40 ms (1.00 video frame)
Interleave, preload duration : 512 ms



Релиз от:



   Похожие торренты   Торрент   Размер 
В этой теме нет новых непрочитанных сообщений. Они сражались за Родину (1975) HDTVRip 720p от ExKinoRay | полная версия

463 | 38

4.73 ГБ

В этой теме нет новых непрочитанных сообщений. Они сражались за Родину (1975) DVDRip | Полная версия

473 | 35

2.17 ГБ

В этой теме нет новых непрочитанных сообщений. Они сражались за Родину (1975) HDTVRip от MediaClub | Телеверсия

73 | 4

1.45 ГБ

В этой теме нет новых непрочитанных сообщений. Они сражались за Родину (1975) HDTVRip от Scarabey

144 | 24

1.45 ГБ

В этой теме нет новых непрочитанных сообщений. Они сражались за Родину (1975) HDTVRip от Scarabey

75 | 9

2.18 ГБ

В этой теме нет новых непрочитанных сообщений. Они сражались за Родину (1975) WEB-DL

109 | 5

4.19 ГБ

В этой теме нет новых непрочитанных сообщений. Они сражались за Родину (1975) WEB-DLRip

25 | 6

2.76 ГБ




Вы не можете начинать темы
Вы не можете отвечать на сообщения
Вы не можете редактировать свои сообщения
Вы не можете удалять свои сообщения
Вы не можете добавлять вложения

Перейти:  
Для Мосгорсуда, Роскомнадзора и рекламодателей: mosgorsud-torrent[собачка]yandex.ru
 Вход
ppkBB3cker v.2 © 2008-2014 @ PPK
[ Time : 0.053s | 14 Queries | GZIP : Off ]

Торрент трекер RUTOR.IN, Не можете зайти на rutor.org? Какой новый адрес рутор? Какое зеркало рутор? Не работает rutor.org и зеркала? Тогда наш торрент специально для вас. Rutor.in неофициальное зеркало rutor. В случае если у Вас заблокирован rutor или вдруг Вы не можете на него зайти, то Вы без труда сможете скачать бесплатно и без рекламы последние новинки кино, игр, сериалов и прочего у нас, на Rutor.in. Не нужно использовать прокси, чтобы зайти на рутор, достаточно воспользоваться нашим ресурсом. Все новые фильмы, игры, сериалы, книги и музыка за 2013 и 2014 годы через торрент бесплатно. Скачивайте фильмы в хорошем качестве, игры для пк, xbox, playstation без регистрации. У нас вы найдете новые Зарубежные сериалы и Русские сериалы 2013, 2014, 2015 годов. Оставайтесь с нами, качайте любимые фильмы, игры, сериалы, книги и музыку.