img image001 image001 image001 image001 image001 image001 image001 image001 image001 image001 image001 image001 image001 image001 image001

Planets Sun Sun Sun
Статистика раздачи
Автор: Nickolas3434 | Размер: 1.46 ГБ | Добавлен: 14 май 2015
Раздают: 13    Качают: 2
Скачать торрент
Скачать торрент
Описание торрента

СообщениеДобавлено: 14 май 2015 

Страна: СССР
Производство: Союздетфильм
Жанр: военный
Год выпуска: 1946
Продолжительность: 01:23:15
Перевод: Не требуется
Cубтитры: нет
Оригинальная аудиодорожка: русский
Режиссер: Виктор Эйсымонт
В ролях:
Борис Ливанов, Александр Зражевский, Всеволод Ларионов, Николай Чаплыгин, Михаил Садовский, Надир Малишевский, Василий Новиков, Лев Свердлин, Николай Бубнов, Сергей Ценин, Ростислав Плятт, Владимир Ван-Зо-Ли, Федор Скуратов, Лев Потемкин...
Описание:
27 января 1904 года русский крейсер «Варяг» вместе с канонерской лодкой «Кореец» был атакован японской эскадрой и получил требование сдаться на милость противника. Командир «Варяга» В. Ф. Руднев принял бой. Два японских корабля были затоплены, еще два — подбиты, но силы были слишком неравными…





Источник: DVD5 R5
Качество видео: DVDRip
Формат видео: AVI
Видео: 688x512 (4:3), 25 fps, XviD ~ 2309 kbps avg, 0.262 bit/pixel
Аудио: 48 kHz, Dolby Digital AC3 2.0, 192 kbps
Раздача от:
Общее
Полное имя : Kreyser«Varyag».1946.DVDRip_[New-team]_by_AVP_Studio.avi
Формат : AVI
Формат/Информация : Audio Video Interleave
Размер файла : 1,46 Гбайт
Продолжительность : 1 ч. 23 м.
Общий поток : 2510 Кбит/сек
Программа кодирования : VirtualDubModRus 1.5.10.2 (build 2542/release)
Библиотека кодирования : VirtualDubMod build 2542/release
Видео
Идентификатор : 0
Формат : MPEG-4 Visual
Профиль формата : Advanced Simple@L5
Параметр BVOP формата : 1
Параметр QPel формата : Нет
Параметр GMC формата : Без точки перехода
Параметр матрицы формата : Выборочная
Идентификатор кодека : XVID
Идентификатор кодека/Подсказка : XviD
Продолжительность : 1 ч. 23 м.
Битрейт : 2309 Кбит/сек
Ширина : 688 пикселей
Высота : 512 пикселей
Соотношение сторон : 4:3
Частота кадров : 25,000 кадров/сек
Цветовое пространство : YUV
Субдискретизация насыщенности : 4:2:0
Битовая глубина : 8 бит
Тип развёртки : Прогрессивная
Метод сжатия : С потерями
Бит/(Пиксели*Кадры) : 0.262
Размер потока : 1,34 Гбайт (92%)
Библиотека кодирования : XviD 73
Аудио
Идентификатор : 1
Формат : AC-3
Формат/Информация : Audio Coding 3
Расширение режима : CM (complete main)
Параметр Endianness формата : Big
Идентификатор кодека : 2000
Продолжительность : 1 ч. 23 м.
Вид битрейта : Постоянный
Битрейт : 192 Кбит/сек
Каналы : 2 канала
Расположение каналов : Front: L R
Частота : 48,0 КГц
Битовая глубина : 16 бит
Метод сжатия : С потерями
Размер потока : 114 Мбайт (8%)
Выравнивание : Разделение по промежуткам
Продолжительность промежутка : 40 мс. (1,00 видеокадр)
Время предзагрузки промежутка : 500 мс





   Похожие торренты   Торрент   Размер 
В этой теме нет новых непрочитанных сообщений. Крейсер «Варяг» (1946) DVDRip от New-Team

30 | 2

745.31 МБ

В этой теме нет новых непрочитанных сообщений. Крейсер «Варяг» (1946) DVDRip-AVC от New-Team

27 | 3

1.46 ГБ

В этой теме нет новых непрочитанных сообщений. Крейсер Варяг (1946) DVDRip

32 | 7

1.92 ГБ

В этой теме нет новых непрочитанных сообщений. Крейсер "Варяг" (1946 / 2004) DVDRip / TVRip

0 | 1

2.42 ГБ

В этой теме нет новых непрочитанных сообщений. Крейсер Варяг (2004) DVDRip-AVC от Тorrent-Хzona

3 | 2

1.2 ГБ

В этой теме нет новых непрочитанных сообщений. Крейсер «Варяг» (2004) SATRip

114 | 4

1006.69 МБ

В этой теме нет новых непрочитанных сообщений. Глинка (1946) DVDRip от New-Team

10 | 55

744.36 МБ




Вы не можете начинать темы
Вы не можете отвечать на сообщения
Вы не можете редактировать свои сообщения
Вы не можете удалять свои сообщения
Вы не можете добавлять вложения

Перейти:  
Для Мосгорсуда, Роскомнадзора и рекламодателей: mosgorsud-torrent[собачка]yandex.ru
 Вход
ppkBB3cker v.2 © 2008-2014 @ PPK
[ Time : 0.058s | 15 Queries | GZIP : Off ]

Торрент трекер RUTOR.IN, Не можете зайти на rutor.org? Какой новый адрес рутор? Какое зеркало рутор? Не работает rutor.org и зеркала? Тогда наш торрент специально для вас. Rutor.in неофициальное зеркало rutor. В случае если у Вас заблокирован rutor или вдруг Вы не можете на него зайти, то Вы без труда сможете скачать бесплатно и без рекламы последние новинки кино, игр, сериалов и прочего у нас, на Rutor.in. Не нужно использовать прокси, чтобы зайти на рутор, достаточно воспользоваться нашим ресурсом. Все новые фильмы, игры, сериалы, книги и музыка за 2013 и 2014 годы через торрент бесплатно. Скачивайте фильмы в хорошем качестве, игры для пк, xbox, playstation без регистрации. У нас вы найдете новые Зарубежные сериалы и Русские сериалы 2013, 2014, 2015 годов. Оставайтесь с нами, качайте любимые фильмы, игры, сериалы, книги и музыку.