img image001 image001 image001 image001 image001 image001 image001 image001 image001 image001 image001 image001 image001 image001 image001

Planets Sun Sun Sun
Статистика раздачи
Автор: Nickolas3434 | Размер: 1.64 ГБ | Добавлен: 14 май 2015
Раздают: 420    Качают: 5
Скачать торрент
Скачать торрент
Описание торрента

СообщениеДобавлено: 14 май 2015 


Год выпуска: 2012
Страна: Россия
Жанр: драма, военный, история
Продолжительность: 02:05:22
Перевод: Оригинал (русский)
Режиссер: Александр Прошкин
В ролях: Виктория Романенко, Риналь Мухаметов, Андрей Панин, Татьяна Яковенко, Виктор Сухоруков, Сергей Дрейден, Екатерина Волкова, Наталья Морозова, Алишер Умаров, Николай Бутенин
Описание: Действие фильма разворачивается в канун первого послевоенного Нового 1946 года в разоренном южном городе, где еще совсем недавно жили в мире и согласии представители различных национальностей. Молох войны разделил их на жертв и палачей, породил бесконечное сострадание и нечеловеческую низость. Впрочем, и послевоенная жизнь в разрухе, голоде и нищете обернулась тяжким испытанием. Посудомойка, вдова героя-летчика, ворует из милицейской столовой, чтоб прокормить шестнадцатилетнюю дочь и двух доходяг, которых, по доброте душевной, приютила в своем убогом жилище. Возмущенная дочь доносит на мать и та отправляется искупать грех в тюрьму.
Тема искупления в фильме сложна и непрямолинейна. Молодой лейтенант, летчик, еврей по национальности, возвращается после госпиталя в родной город и узнает, что вся его семья погибла в годы оккупации от рук негодяя соседа. Слепая жажда мести…кровь за кровь…обращены в пустоту — негодяй понес наказание и сгнивает заживо в тюрьме.
Испепеляющее лейтенанта чувство толкает его на самоубийство. И только новое, пробуждающееся в нем чувство к влюбленной в него юной девушке, спасает его от рокового шага.

Видео кодек: MPEG-4 AVC
Качество: BDRip 720p
Параметры Видео: 1280x528, 23.976 fps; ~1 714 kbps avg
Параметры Звука: 44.1 KHz, AAC, ~150.00 kbps avg, 2ch
Формат: mp4
Автор рипа:
Релиз-группа:



General
Complete name : E:Iskuplenie.2012.O.BDRip.720p_KinoGadget.and.KinoXa.mp4
Format : MPEG-4
Format profile : Base Media
Codec ID : isom
File size : 1.64 GiB
Duration : 2h 5mn
Overall bit rate mode : Variable
Overall bit rate : 1 871 Kbps
Movie name : Искупление
Performer : Александр Прошкин
Genre : Drama, War
ContentType : Short Film
Recorded date : 2012
Encoded date : UTC 2015-05-13 17:05:32
Tagged date : UTC 2015-05-13 17:19:42
Cover : Yes
LongDeion : Тема искупления в фильме сложна и непрямолинейна. Молодой лейтенант, летчик, еврей по национальности, возвращается после госпиталя в родной город и узнает, что вся его семья погибла в годы оккупации от рук негодяя соседа. Слепая жажда мести…кровь за кровь…обращены в пустоту — негодяй понес наказание и сгнивает заживо в тюрьме.
HDVideo : Yes
Video
ID : 1
Format : AVC
Format/Info : Advanced Video Codec
Format profile : High@L4.1
Format settings, CABAC : Yes
Format settings, ReFrames : 11 frames
Codec ID : avc1
Codec ID/Info : Advanced Video Coding
Duration : 2h 5mn
Bit rate : 1 714 Kbps
Maximum bit rate : 7 899 Kbps
Width : 1 280 pixels
Height : 528 pixels
Display aspect ratio : 2.40:1
Frame rate mode : Constant
Frame rate : 24.000 fps
Color space : YUV
Chroma subsampling : 4:2:0
Bit depth : 8 bits
Scan type : Progressive
Bits/(Pixel*Frame) : 0.106
Stream size : 1.50 GiB (92%)
Writing library : x264 core 142 r2431 ac76440
Encoding settings : cabac=1 / ref=11 / deblock=1:-1:-1 / analyse=0x3:0x133 / me=umh / subme=9 / psy=1 / psy_rd=1.00:0.20 / mixed_ref=1 / me_range=24 / chroma_me=1 / trellis=2 / 8x8dct=1 / cqm=0 / deadzone=21,11 / fast_pskip=1 / chroma_qp_offset=-3 / threads=1 / lookahead_threads=1 / sliced_threads=0 / nr=0 / decimate=1 / interlaced=0 / bluray_compat=0 / constrained_intra=0 / bframes=4 / b_pyramid=2 / b_adapt=2 / b_bias=0 / direct=3 / weightb=1 / open_gop=0 / weightp=2 / keyint=240 / keyint_min=24 / scenecut=40 / intra_refresh=0 / rc_lookahead=60 / rc=crf / mbtree=1 / crf=21.0 / qcomp=0.60 / qpmin=0 / qpmax=69 / qpstep=4 / ip_ratio=1.40 / aq=1:1.00
Encoded date : UTC 2015-05-13 09:48:49
Tagged date : UTC 2015-05-13 17:06:15
Audio
ID : 2
Format : AAC
Format/Info : Advanced Audio Codec
Format profile : LC
Codec ID : 40
Duration : 2h 5mn
Bit rate mode : Variable
Bit rate : 150 Kbps
Maximum bit rate : 219 Kbps
Channel count : 2 channels
Channel positions : Front: L R
Sampling rate : 44.1 KHz
Compression mode : Lossy
Stream size : 134 MiB (8%)
Language : Russian
Encoded date : UTC 2015-05-13 17:05:59
Tagged date : UTC 2015-05-13 17:06:15





   Похожие торренты   Торрент   Размер 
В этой теме нет новых непрочитанных сообщений. Топ-5 / Top Five (2014) BDRip 720p | KinoGadget and KinoXa | iPad

49 | 3

1.77 ГБ

В этой теме нет новых непрочитанных сообщений. Дикая / Wild (2014) BDRip 720p | KinoGadget and KinoXa | iPad

137 | 16

1.67 ГБ

В этой теме нет новых непрочитанных сообщений. Лофт / The Loft (2014) BDRip 720p от KinoGadget and KinoXa | iPad

84 | 6

1.79 ГБ

В этой теме нет новых непрочитанных сообщений. Золушка / Cinderella (2015) BDRip 720p от KinoGadget and KinoXa | iPad

218 | 23

1.58 ГБ

В этой теме нет новых непрочитанных сообщений. Седьмой сын / Seventh Son (2014) BDRip 720p | KinoGadget and KinoXa | iPad

473 | 43

1.73 ГБ

В этой теме нет новых непрочитанных сообщений. Кибер / Blackhat (2015) BDRip 720p | KinoGadget and KinoXa | iPad

259 | 10

1.49 ГБ

В этой теме нет новых непрочитанных сообщений. Ночной беглец / Run All Night (2015) BDRip 720p от KinoGadget and KinoXa | iPad

171 | 10

2.01 ГБ




Вы не можете начинать темы
Вы не можете отвечать на сообщения
Вы не можете редактировать свои сообщения
Вы не можете удалять свои сообщения
Вы не можете добавлять вложения

Перейти:  
Для Мосгорсуда, Роскомнадзора и рекламодателей: mosgorsud-torrent[собачка]yandex.ru
 Вход
ppkBB3cker v.2 © 2008-2014 @ PPK
[ Time : 0.037s | 16 Queries | GZIP : Off ]

cron