img image001 image001 image001 image001 image001 image001 image001 image001 image001 image001 image001 image001 image001 image001 image001

Planets Sun Sun Sun
Статистика раздачи
Автор: Nickolas3434 | Размер: 1.44 ГБ | Добавлен: 16 май 2015
Раздают: 338    Качают: 7
Скачать торрент
Скачать торрент
Описание торрента

СообщениеДобавлено: 16 май 2015 

Информация о фильме
Название: Дорога на Берлин
Год выхода: 2015
Жанр: военный, драма
Режиссер: Сергей Попов
В ролях: Юрий Борисов, Амир Абдыкалыков, Мария Карпова, Максим Демченко, Александр Новик, Артем Лебедев, Андрей Дерюгин
О фильме: Действие фильма происходит в Великую Отечественную войну. Главные герои — лейтенант Огарков и рядовой Джурабаев — молодые люди, выходцы из разных союзных республик, разные по характеру и жизненным позициям, но объединенные общей целью. В основе фильма лежат их сложные отношения и поступки, продиктованные фоном страшных событий войны. Это история о человеческих взаимоотношениях, истинных нравственных ценностях, долге перед Родиной, близкими и самим собой.

Выпущено: Россия
Продолжительность: 01:22:20
Озвучивание: Оригинальное [лицензия]
Файл
Качество: DVDRip (AVC)
Видео: MPEG-4 AVC, 2055 Кбит/с, 720x524@1024x524
Аудио: AC3, 6 ch, 448 Кбит/с
General
Unique ID : 246948015171176287976464415156216522129 (0xB9C8752CA5BFF929B240C411E937E591)
Complete name : C:Doroga.Na.Berlin.2014.O.DVDRip.AVC.ExKinoRay.mkv
Format : Matroska
Format version : Version 4 / Version 2
File size : 1.44 GiB
Duration : 1h 22mn
Overall bit rate : 2 503 Kbps
Movie name : Doroga na Berlin 2015 from ExKinoRay
Encoded date : UTC 2015-05-14 17:43:01
Writing application : mkvmerge v6.6.0 ('The Edge Of The In Between') built on Dec 1 2013 17:55:00
Writing library : libebml v1.3.0 + libmatroska v1.4.1
Video
ID : 1
Format : AVC
Format/Info : Advanced Video Codec
Format profile : High@L4.1
Format settings, CABAC : Yes
Format settings, ReFrames : 10 frames
Codec ID : V_MPEG4/ISO/AVC
Duration : 1h 22mn
Bit rate : 2 055 Kbps
Width : 720 pixels
Height : 524 pixels
Display aspect ratio : 1.954
Frame rate mode : Constant
Frame rate : 25.000 fps
Color space : YUV
Chroma subsampling : 4:2:0
Bit depth : 8 bits
Scan type : Progressive
Bits/(Pixel*Frame) : 0.218
Stream size : 1.15 GiB (80%)
Title : Enigma
Writing library : x264 core 133 r2334 a3ac64b
Encoding settings : cabac=1 / ref=10 / deblock=1:-2:-2 / analyse=0x3:0x113 / me=umh / subme=10 / psy=1 / psy_rd=1.05:0.15 / mixed_ref=1 / me_range=32 / chroma_me=1 / trellis=2 / 8x8dct=1 / cqm=0 / deadzone=21,11 / fast_pskip=0 / chroma_qp_offset=-3 / threads=12 / lookahead_threads=2 / sliced_threads=0 / nr=0 / decimate=0 / interlaced=0 / bluray_compat=0 / constrained_intra=0 / bframes=9 / b_pyramid=2 / b_adapt=2 / b_bias=0 / direct=3 / weightb=1 / open_gop=0 / weightp=2 / keyint=250 / keyint_min=25 / scenecut=40 / intra_refresh=0 / rc=2pass / mbtree=0 / bitrate=2055 / ratetol=1.0 / qcomp=0.70 / qpmin=0 / qpmax=51 / qpstep=4 / cplxblur=20.0 / qblur=0.5 / ip_ratio=1.40 / pb_ratio=1.30 / aq=1:1.00
Default : Yes
Forced : No
Color primaries : BT.601 PAL
Transfer characteristics : BT.470 System B, BT.470 System G
Matrix coefficients : BT.601
Audio
ID : 2
Format : AC-3
Format/Info : Audio Coding 3
Mode extension : CM (complete main)
Format settings, Endianness : Big
Codec ID : A_AC3
Duration : 1h 22mn
Bit rate mode : Constant
Bit rate : 448 Kbps
Channel(s) : 6 channels
Channel positions : Front: L C R, Side: L R, LFE
Sampling rate : 48.0 KHz
Bit depth : 16 bits
Compression mode : Lossy
Stream size : 264 MiB (18%)
Language : Russian
Default : Yes
Forced : No
Menu
00:00:00.000 : :Chapter 01
00:05:06.240 : :Chapter 02
00:12:48.960 : :Chapter 03
00:23:10.080 : :Chapter 04
00:33:43.200 : :Chapter 05
00:40:12.960 : :Chapter 06
00:47:10.080 : :Chapter 07
00:52:16.320 : :Chapter 08
00:58:30.240 : :Chapter 09
01:04:31.680 : :Chapter 10
01:10:32.160 : :Chapter 11
01:17:58.560 : :Chapter 12
01:22:18.440 : :Chapter 13




Релиз от:
Автор релиза:



   Похожие торренты   Торрент   Размер 
В этой теме нет новых непрочитанных сообщений. Дорога на Берлин (2015) DVDRip | Лицензия

470 | 17

702.83 МБ

В этой теме нет новых непрочитанных сообщений. Дорога на Берлин (2015) DVDRip | Лицензия

4005 | 119

1.37 ГБ

В этой теме нет новых непрочитанных сообщений. Дорога на Берлин (2015) DVDRip от Generalfilm | КПК | Лицензия

741 | 6

284.25 МБ

В этой теме нет новых непрочитанных сообщений. Дорога на Берлин (2015) DVDRip от Scarabey | Лицензия

818 | 30

1.45 ГБ

В этой теме нет новых непрочитанных сообщений. Дорога на Берлин (2015) DVDRip от Scarabey | Лицензия

179 | 16

744.42 МБ

В этой теме нет новых непрочитанных сообщений. Дорога на Берлин (2015) BDRip | Лицензия

1842 | 92

1.46 ГБ

В этой теме нет новых непрочитанных сообщений. Дорога на Берлин (2015) DVD5 | Лицензия

353 | 37

3.56 ГБ




Вы не можете начинать темы
Вы не можете отвечать на сообщения
Вы не можете редактировать свои сообщения
Вы не можете удалять свои сообщения
Вы не можете добавлять вложения

Перейти:  
Для Мосгорсуда, Роскомнадзора и рекламодателей: mosgorsud-torrent[собачка]yandex.ru
 Вход
ppkBB3cker v.2 © 2008-2014 @ PPK
[ Time : 0.079s | 15 Queries | GZIP : Off ]

Торрент трекер RUTOR.IN, Не можете зайти на rutor.org? Какой новый адрес рутор? Какое зеркало рутор? Не работает rutor.org и зеркала? Тогда наш торрент специально для вас. Rutor.in неофициальное зеркало rutor. В случае если у Вас заблокирован rutor или вдруг Вы не можете на него зайти, то Вы без труда сможете скачать бесплатно и без рекламы последние новинки кино, игр, сериалов и прочего у нас, на Rutor.in. Не нужно использовать прокси, чтобы зайти на рутор, достаточно воспользоваться нашим ресурсом. Все новые фильмы, игры, сериалы, книги и музыка за 2013 и 2014 годы через торрент бесплатно. Скачивайте фильмы в хорошем качестве, игры для пк, xbox, playstation без регистрации. У нас вы найдете новые Зарубежные сериалы и Русские сериалы 2013, 2014, 2015 годов. Оставайтесь с нами, качайте любимые фильмы, игры, сериалы, книги и музыку.