img image001 image001 image001 image001 image001 image001 image001 image001 image001 image001 image001 image001 image001 image001 image001

Planets Sun Sun Sun
Статистика раздачи
Автор: Nickolas3434 | Размер: 1.78 ГБ | Добавлен: 15 май 2015
Раздают: 707    Качают: 21
Скачать торрент
Скачать торрент
Описание торрента

СообщениеДобавлено: 15 май 2015 

Информация о фильме
Название: Территория
Год выхода: 2015
Жанр: драма, приключения
Режиссер: Александр Мельник
В ролях: Константин Лавроненко, Григорий Добрыгин, Егор Бероев, Ксения Кутепова, Евгений Цыганов, Владислав Абашин, Герасим Васильев, Константин Шелестун, Константин Балакирев, Олег Шапков
О фильме:
Территория — это место, где люди проверяются на прочность. Необозримые пространства, где тундра встречается с ледяными торосами Ледовитого океана. Суровый русский север, которому способны бросить вызов немногие. Геолог Илья Чинков, одержимый идеей найти легендарное золото Территории, собирает команду смельчаков, готовых поставить на карту все, включая собственные жизни.

Выпущено: Россия
Продолжительность: 02:31:52
Озвучивание: Оригинальное [iTunes]
Файл
Формат: MKV
Качество: WEB-DLRip-AVC
Видео: ~1300 kb/s, 960x400
Аудио: AC3, 384 kb/s (6 ch)
General
Unique ID : 250976540484180991642592526647915382540 (0xBCD052CEA64094E4D8BFC3763B1B070C)
Complete name : F:Территория.2015.O.WEB-DLRIP_AVC.[-=DoMiNo=-].mkv
Format : Matroska
Format version : Version 4 / Version 2
File size : 1.78 GiB
Duration : 2h 31mn
Overall bit rate : 1 676 Kbps
Writing application : XviD4PSP 7.0.133
Writing library : Lavf56.15.102
Video
ID : 1
Format : AVC
Format/Info : Advanced Video Codec
Format profile : High@L4.1
Format settings, CABAC : Yes
Format settings, ReFrames : 12 frames
Codec ID : V_MPEG4/ISO/AVC
Duration : 2h 31mn
Bit rate : 1 258 Kbps
Width : 960 pixels
Height : 400 pixels
Display aspect ratio : 2.40:1
Frame rate mode : Constant
Frame rate : 25.000 fps
Color space : YUV
Chroma subsampling : 4:2:0
Bit depth : 8 bits
Scan type : Progressive
Bits/(Pixel*Frame) : 0.131
Stream size : 1.33 GiB (75%)
Writing library : x264 core 146 r2538M 121396c
Encoding settings : cabac=1 / ref=12 / deblock=1:-3:-3 / analyse=0x3:0x133 / me=umh / subme=10 / psy=1 / psy_rd=1,00:0,10 / mixed_ref=1 / me_range=32 / chroma_me=1 / trellis=2 / 8x8dct=1 / cqm=0 / deadzone=21,11 / fast_pskip=0 / chroma_qp_offset=-3 / threads=12 / lookahead_threads=3 / sliced_threads=0 / nr=0 / decimate=1 / interlaced=0 / bluray_compat=0 / constrained_intra=0 / bframes=11 / b_pyramid=2 / b_adapt=2 / b_bias=0 / direct=1 / weightb=1 / open_gop=0 / weightp=2 / keyint=250 / keyint_min=25 / scenecut=40 / intra_refresh=0 / rc=crf / mbtree=0 / crf=19,0 / qcomp=0,60 / qpmin=18 / qpmax=69 / qpstep=4 / ip_ratio=1,40 / pb_ratio=1,30 / aq=1:1,00
Language : English
Default : Yes
Forced : No
Color range : Limited
Color primaries : BT.709
Transfer characteristics : BT.709
Matrix coefficients : BT.709
Audio
ID : 2
Format : AC-3
Format/Info : Audio Coding 3
Mode extension : CM (complete main)
Format settings, Endianness : Big
Codec ID : A_AC3
Duration : 2h 31mn
Bit rate mode : Constant
Bit rate : 384 Kbps
Channel(s) : 6 channels
Channel positions : Front: L C R, Side: L R, LFE
Sampling rate : 48.0 KHz
Bit depth : 32 bits
Compression mode : Lossy
Stream size : 417 MiB (23%)
Language : Russian
Default : Yes
Forced : No
Menu
00:00:00.000 : :Глава 1
00:04:33.000 : :Глава 2
00:10:45.000 : :Глава 3
00:18:03.000 : :Глава 4
00:22:27.000 : :Глава 5
00:27:01.000 : :Глава 6
00:32:39.000 : :Глава 7
00:39:20.000 : :Глава 8
00:45:28.000 : :Глава 9
00:51:28.000 : :Глава 10
00:55:35.000 : :Глава 11
01:01:19.000 : :Глава 12
01:06:59.000 : :Глава 13
01:15:13.000 : :Глава 14
01:20:38.000 : :Глава 15
01:25:15.000 : :Глава 16
01:33:46.000 : :Глава 17
01:37:34.000 : :Глава 18
01:42:21.000 : :Глава 19
01:47:36.000 : :Глава 20
01:50:58.000 : :Глава 21
01:55:29.000 : :Глава 22
02:01:33.000 : :Глава 23
02:09:22.000 : :Глава 24
02:14:02.000 : :Глава 25
02:19:15.000 : :Глава 26
02:23:30.000 : :Глава 27








   Похожие торренты   Торрент   Размер 
В этой теме нет новых непрочитанных сообщений. Территория (2015) WEB-DLRip | iTunes

7334 | 139

1.46 ГБ

В этой теме нет новых непрочитанных сообщений. Территория (2015) WEB-DLRip | iTunes

2172 | 8

2.19 ГБ

В этой теме нет новых непрочитанных сообщений. Территория (2015) WEB-DLRip | iTunes

1167 | 32

1.46 ГБ

В этой теме нет новых непрочитанных сообщений. Территория (2015) WEB-DLRip от Generalfilm | КПК | iTunes

534 | 19

523.56 МБ

В этой теме нет новых непрочитанных сообщений. Территория (2014) WEB-DLRip от Scarabey | iTunes

1245 | 35

1.46 ГБ

В этой теме нет новых непрочитанных сообщений. Территория (2014) WEB-DLRip от Scarabey | iTunes

532 | 18

2.19 ГБ

В этой теме нет новых непрочитанных сообщений. Территория (2015) WEB-DL 720p | iTunes

2692 | 55

4.66 ГБ




Вы не можете начинать темы
Вы не можете отвечать на сообщения
Вы не можете редактировать свои сообщения
Вы не можете удалять свои сообщения
Вы не можете добавлять вложения

Перейти:  
Для Мосгорсуда, Роскомнадзора и рекламодателей: mosgorsud-torrent[собачка]yandex.ru
 Вход
ppkBB3cker v.2 © 2008-2014 @ PPK
[ Time : 0.039s | 16 Queries | GZIP : Off ]

Торрент трекер RUTOR.IN, Не можете зайти на rutor.org? Какой новый адрес рутор? Какое зеркало рутор? Не работает rutor.org и зеркала? Тогда наш торрент специально для вас. Rutor.in неофициальное зеркало rutor. В случае если у Вас заблокирован rutor или вдруг Вы не можете на него зайти, то Вы без труда сможете скачать бесплатно и без рекламы последние новинки кино, игр, сериалов и прочего у нас, на Rutor.in. Не нужно использовать прокси, чтобы зайти на рутор, достаточно воспользоваться нашим ресурсом. Все новые фильмы, игры, сериалы, книги и музыка за 2013 и 2014 годы через торрент бесплатно. Скачивайте фильмы в хорошем качестве, игры для пк, xbox, playstation без регистрации. У нас вы найдете новые Зарубежные сериалы и Русские сериалы 2013, 2014, 2015 годов. Оставайтесь с нами, качайте любимые фильмы, игры, сериалы, книги и музыку.
cron