img image001 image001 image001 image001 image001 image001 image001 image001 image001 image001 image001 image001 image001 image001 image001

Planets Sun Sun Sun
Статистика раздачи
Автор: Nickolas3434 | Размер: 7.76 ГБ | Добавлен: 17 май 2015
Раздают: 956    Качают: 55
Скачать торрент
Скачать торрент
Описание торрента

СообщениеДобавлено: 17 май 2015 


Информация о фильме
Название: Солярис
Год выхода: 1972
Жанр: фантастика, драма, детектив, приключения
Режиссер: Андрей Тарковский
В ролях: Наталья Бондарчук, Донатас Банионис, Юри Ярвет, Владислав Дворжецкий, Николай Гринько, Анатолий Солоницын, Ольга Барнет, Виталик Кердимун, Ольга Кизилова, Татьяна Малых
О фильме: На космическую станцию, сотрудники которой давно и тщетно пытаются сладить с загадкой планеты Солярис, покрытой Океаном, прибывает новый обитатель, психолог Крис Кельвин, чтобы разобраться в странных сообщениях, поступающих со станции, и «закрыть» ее вместе со всей бесплодной «соляристикой». Поначалу ему кажется, что немногие уцелевшие на станции ученые сошли с ума. Потом он и сам становится жертвой жуткого наваждения: ему является его бывшая возлюбленная Хари, некогда на земле покончившая с собой.
Примечание: Полная реставрация изображения и звука. Покадровая цифровая реставрация изображения, ремастеринг звука и авторинг - Киноконцерн «Мосфильм» и объединение «Крупный план».

Выпущено: Мосфильм
Продолжительность: 02:46:26
Перевод: Оригинал (лицензия)
Файл
Кодек: x264
Качество: BDRip (источник: Blu-ray Disc)
Видео: 1280x544 (2,35:1), 23.976 fps, 6226 kbps
Аудио: AC-3, 6 ch, 448 kbps
Скачать: сэмпл
Скриншоты

Общее
Уникальный идентификатор : 186680884818772660943895721021267594406 (0x8C716E3C91CD930EAD4FEFB94C5D4CA6)
Полное имя : Solyaris.1972.BDRip.720p.Rus.mkv
Формат : Matroska
Версия формата : Version 2
Размер файла : 7,76 Гбайт
Продолжительность : 2 ч. 46 м.
Общий поток : 6676 Кбит/сек
Название фильма : Солярис (1972)
Дата кодирования : UTC 2015-05-13 17:39:40
Программа кодирования : mkvmerge v5.8.0 ('No Sleep / Pillow') built on Sep 2 2012 15:37:04
Библиотека кодирования : libebml v1.2.3 + libmatroska v1.3.0
Видео
Идентификатор : 1
Формат : AVC
Формат/Информация : Advanced Video Codec
Профиль формата : High@L4.1
Параметр CABAC формата : Да
Параметр ReFrames формата : 9 кадров
Идентификатор кодека : V_MPEG4/ISO/AVC
Продолжительность : 2 ч. 46 м.
Битрейт : 6226 Кбит/сек
Ширина : 1280 пикселей
Высота : 544 пикселя
Соотношение сторон : 2,35:1
Режим частоты кадров : Постоянный
Частота кадров : 23,976 кадра/сек
Цветовое пространство : YUV
Субдискретизация насыщенности : 4:2:0
Битовая глубина : 8 бит
Тип развёртки : Прогрессивная
Бит/(Пиксели*Кадры) : 0.373
Размер потока : 7,09 Гбайт (91%)
Заголовок : Release by AlexKa
Библиотека кодирования : x264 core 146 r2538 121396c
Настройки программы : cabac=1 / ref=9 / deblock=1:-3:-3 / analyse=0x3:0x133 / me=umh / subme=11 / psy=1 / psy_rd=1.00:0.10 / mixed_ref=1 / me_range=32 / chroma_me=1 / trellis=2 / 8x8dct=1 / cqm=0 / deadzone=21,11 / fast_pskip=0 / chroma_qp_offset=-3 / threads=12 / lookahead_threads=3 / sliced_threads=0 / nr=0 / decimate=0 / interlaced=0 / bluray_compat=0 / constrained_intra=0 / bframes=13 / b_pyramid=2 / b_adapt=2 / b_bias=0 / direct=3 / weightb=1 / open_gop=0 / weightp=2 / keyint=240 / keyint_min=23 / scenecut=40 / intra_refresh=0 / rc=2pass / mbtree=0 / bitrate=6226 / ratetol=1.0 / qcomp=0.60 / qpmin=0 / qpmax=69 / qpstep=4 / cplxblur=20.0 / qblur=0.5 / ip_ratio=1.40 / pb_ratio=1.30 / aq=1:1.00
Язык : Russian
Аудио
Идентификатор : 2
Формат : AC-3
Формат/Информация : Audio Coding 3
Расширение режима : CM (complete main)
Параметр Endianness формата : Big
Идентификатор кодека : A_AC3
Продолжительность : 2 ч. 46 м.
Вид битрейта : Постоянный
Битрейт : 448 Кбит/сек
Каналы : 6 каналов
Расположение каналов : Front: L C R, Side: L R, LFE
Частота : 48,0 КГц
Битовая глубина : 16 бит
Метод сжатия : С потерями
Размер потока : 533 Мбайт (7%)
Заголовок : Rus
Язык : Russian
Меню
00:00:00.000 : :Chapter 01
00:06:53.413 : :Chapter 02
00:10:46.646 : :Chapter 03
00:17:16.035 : :Chapter 04
00:24:40.478 : :Chapter 05
00:31:10.869 : :Chapter 06
00:38:07.285 : :Chapter 07
00:42:55.573 : :Chapter 08
00:51:03.060 : :Chapter 09
00:57:18.435 : :Chapter 10
01:04:00.837 : :Chapter 11
01:09:14.150 : :Chapter 12
01:19:04.740 : :Chapter 13
01:30:47.442 : :Chapter 14
01:39:19.954 : :Chapter 15
01:44:24.258 : :Chapter 16
01:49:36.570 : :Chapter 17
01:55:17.911 : :Chapter 18
02:05:39.532 : :Chapter 19
02:14:13.045 : :Chapter 20
02:21:36.488 : :Chapter 21
02:24:18.650 : :Chapter 22
02:33:24.195 : :Chapter 23
02:39:55.586 : :Chapter 24
x264 [info]: frame I:1120 Avg QP:17.74 size:119235
x264 [info]: frame P:40415 Avg QP:20.49 size: 61865
x264 [info]: frame B:197888 Avg QP:22.65 size: 25966
x264 [info]: consecutive B-frames: 0.8% 0.8% 2.6% 6.7% 10.0% 49.9% 8.6% 2.7% 5.6% 5.1% 3.1% 2.6% 0.8% 0.6%



   Похожие торренты   Торрент   Размер 
В этой теме нет новых непрочитанных сообщений. Солярис / Solaris (1972) BDRip 720p | Полная реставрация «Крупный План»

412 | 34

15.24 ГБ

В этой теме нет новых непрочитанных сообщений. Солярис (1972) HDRip-AVC от Кинорадиомагия | Полная реставрация

718 | 17

2.73 ГБ

В этой теме нет новых непрочитанных сообщений. Солярис (1972) HDRip от Кинорадиомагия | КПК | Полная реставрация

138 | 8

620.02 МБ

В этой теме нет новых непрочитанных сообщений. Солярис (1972) HDRip от Кинорадиомагия | Полная реставрация

366 | 30

2.16 ГБ

В этой теме нет новых непрочитанных сообщений. Солярис (1972) DVD5 | Реставрация

8 | 7

4.3 ГБ

В этой теме нет новых непрочитанных сообщений. Солярис (1972) BDRip 720p от FREEISLAND

10 | 3

6.34 ГБ

В этой теме нет новых непрочитанных сообщений. Солярис (1972) BDRip 720p от FireBit

0 | 2

5.46 ГБ




Вы не можете начинать темы
Вы не можете отвечать на сообщения
Вы не можете редактировать свои сообщения
Вы не можете удалять свои сообщения
Вы не можете добавлять вложения

Перейти:  
Для Мосгорсуда, Роскомнадзора и рекламодателей: mosgorsud-torrent[собачка]yandex.ru
 Вход
ppkBB3cker v.2 © 2008-2014 @ PPK
[ Time : 0.027s | 15 Queries | GZIP : Off ]

Торрент трекер RUTOR.IN, Не можете зайти на rutor.org? Какой новый адрес рутор? Какое зеркало рутор? Не работает rutor.org и зеркала? Тогда наш торрент специально для вас. Rutor.in неофициальное зеркало rutor. В случае если у Вас заблокирован rutor или вдруг Вы не можете на него зайти, то Вы без труда сможете скачать бесплатно и без рекламы последние новинки кино, игр, сериалов и прочего у нас, на Rutor.in. Не нужно использовать прокси, чтобы зайти на рутор, достаточно воспользоваться нашим ресурсом. Все новые фильмы, игры, сериалы, книги и музыка за 2013 и 2014 годы через торрент бесплатно. Скачивайте фильмы в хорошем качестве, игры для пк, xbox, playstation без регистрации. У нас вы найдете новые Зарубежные сериалы и Русские сериалы 2013, 2014, 2015 годов. Оставайтесь с нами, качайте любимые фильмы, игры, сериалы, книги и музыку.