img image001 image001 image001 image001 image001 image001 image001 image001 image001 image001 image001 image001 image001 image001 image001

Planets Sun Sun Sun
Статистика раздачи
Автор: Nickolas3434 | Размер: 745.37 МБ | Добавлен: 17 май 2015
Раздают: 29    Качают: 4
Скачать торрент
Скачать торрент
Описание торрента

СообщениеДобавлено: 17 май 2015 

Страна: СССР
Производство: Свердловская киностудия
Жанр: драма, военный
Год выпуска: 1946
Продолжительность: 01:19:47
Перевод: Не требуется
Cубтитры: нет
Оригинальная аудиодорожка: русский
Режиссер: Александр Медведкин
В ролях:
Василий Ванин, Эмма Цесарская, Вера Алтайская, Александр Хвыля, Сергей Калинин...
Описание:
Красная Армия выбивала немцев с Кубани. Хозяева земли двигались вслед за фронтом в освобожденные станицы и хутора и начинали восстанавливать разрушенное хозяйство. Осенью крестьяне убирают первый урожай на освобожденной земле, а весной встречают фронтовиков, возвращающихся после победы домой…





Источник: DVB
Качество видео: SATRip
Формат видео: AVI
Видео: 640x480 (4:3), 25 fps, XviD ~ 1168 kbps avg, 0.152 bit/pixel
Аудио: 48 kHz, MP3 2.0, 128 kbps
Раздача от:
Общее
Полное имя : Osvobozhdennaya.zemlya.1946.SATRip-745_[New-team]_by_AVP_Studio.avi
Формат : AVI
Формат/Информация : Audio Video Interleave
Размер файла : 745 Мбайт
Продолжительность : 1 ч. 19 м.
Общий поток : 1306 Кбит/сек
Программа кодирования : VirtualDubModRus 1.5.10.2 (build 2542/release)
Библиотека кодирования : VirtualDubMod build 2542/release
Видео
Идентификатор : 0
Формат : MPEG-4 Visual
Профиль формата : Advanced Simple@L5
Параметр BVOP формата : 1
Параметр QPel формата : Нет
Параметр GMC формата : Без точки перехода
Параметр матрицы формата : Выборочная
Идентификатор кодека : XVID
Идентификатор кодека/Подсказка : XviD
Продолжительность : 1 ч. 19 м.
Битрейт : 1168 Кбит/сек
Ширина : 640 пикселей
Высота : 480 пикселей
Соотношение сторон : 4:3
Частота кадров : 25,000 кадров/сек
Цветовое пространство : YUV
Субдискретизация насыщенности : 4:2:0
Битовая глубина : 8 бит
Тип развёртки : Прогрессивная
Метод сжатия : С потерями
Бит/(Пиксели*Кадры) : 0.152
Размер потока : 667 Мбайт (89%)
Библиотека кодирования : XviD 73
Аудио
Идентификатор : 1
Формат : MPEG Audio
Версия формата : Version 1
Профиль формата : Layer 3
Режим : Joint stereo
Расширение режима : MS Stereo
Идентификатор кодека : 55
Идентификатор кодека/Подсказка : MP3
Продолжительность : 1 ч. 19 м.
Вид битрейта : Постоянный
Битрейт : 128 Кбит/сек
Каналы : 2 канала
Частота : 48,0 КГц
Метод сжатия : С потерями
Размер потока : 73,0 Мбайт (10%)
Выравнивание : Соединение по промежуткам
Продолжительность промежутка : 40 мс. (1,00 видеокадр)
Время предзагрузки промежутка : 504 мс





   Похожие торренты   Торрент   Размер 
В этой теме нет новых непрочитанных сообщений. Освобожденная земля (1946) SATRip от New-Team

7 | 6

1.09 ГБ

В этой теме нет новых непрочитанных сообщений. Освобожденная земля (1946) SATRip-AVC от New-Team

27 | 5

1.09 ГБ

В этой теме нет новых непрочитанных сообщений. Большая жизнь (1939, 1946) SATRip-AVC, DVDRip-AVC от New-Team

108 | 68

2.18 ГБ

В этой теме нет новых непрочитанных сообщений. Большая жизнь (1939, 1946) SATRip, DVDRip от New-Team

9 | 8

2.18 ГБ

В этой теме нет новых непрочитанных сообщений. Большая жизнь (1939, 1946) SATRip, DVDRip от New-Team

24 | 16

1.46 ГБ

В этой теме нет новых непрочитанных сообщений. Земля и люди (1955) SATRip от New-Team

20 | 4

746.67 МБ

В этой теме нет новых непрочитанных сообщений. Земля и люди (1955) SATRip-AVC от New-Team

27 | 7

1.46 ГБ




Вы не можете начинать темы
Вы не можете отвечать на сообщения
Вы не можете редактировать свои сообщения
Вы не можете удалять свои сообщения
Вы не можете добавлять вложения

Перейти:  
Для Мосгорсуда, Роскомнадзора и рекламодателей: mosgorsud-torrent[собачка]yandex.ru
 Вход
ppkBB3cker v.2 © 2008-2014 @ PPK
[ Time : 0.030s | 15 Queries | GZIP : Off ]

Торрент трекер RUTOR.IN, Не можете зайти на rutor.org? Какой новый адрес рутор? Какое зеркало рутор? Не работает rutor.org и зеркала? Тогда наш торрент специально для вас. Rutor.in неофициальное зеркало rutor. В случае если у Вас заблокирован rutor или вдруг Вы не можете на него зайти, то Вы без труда сможете скачать бесплатно и без рекламы последние новинки кино, игр, сериалов и прочего у нас, на Rutor.in. Не нужно использовать прокси, чтобы зайти на рутор, достаточно воспользоваться нашим ресурсом. Все новые фильмы, игры, сериалы, книги и музыка за 2013 и 2014 годы через торрент бесплатно. Скачивайте фильмы в хорошем качестве, игры для пк, xbox, playstation без регистрации. У нас вы найдете новые Зарубежные сериалы и Русские сериалы 2013, 2014, 2015 годов. Оставайтесь с нами, качайте любимые фильмы, игры, сериалы, книги и музыку.