img image001 image001 image001 image001 image001 image001 image001 image001 image001 image001 image001 image001 image001 image001 image001

Planets Sun Sun Sun
Статистика раздачи
Автор: Nickolas3434 | Размер: 7.76 ГБ | Добавлен: 16 май 2015, 20:45
Раздают: 2233    Качают: 120
Скачать торрент
Скачать торрент
Описание торрента

СообщениеДобавлено: 16 май 2015, 20:45 


Информация о фильме
Название: Битва за Севастополь / Незламна
Год выхода: 2015
Жанр: военный, драма, мелодрама, боевик
Режиссер: Сергей Мокрицкий
В ролях: Юлия Пересильд, Евгений Цыганов, Олег Васильков, Никита Тарасов, Джоан Блэкэм, Полина Пахомова, Владимир Лилицкий, Анатолий Кот, Нателла Абелева-Таганова, Валерий Гришко
О фильме: Любовь под нескончаемым огнем противника, дружба с Элеонорой Рузвельт, выступление на конференции, повлиявшее на исход Второй мировой войны, желание жить и страх потерять любимого человека — справится ли со всем этим хрупкая женщина?
Это реальная история Людмилы Павличенко — легендарной женщины-снайпера. Солдаты шли в бой с ее именем на устах, а враги устроили на нее охоту. На поле битвы она видела смерть и страдания, но самым серьезным испытанием для нее стала любовь, которую у нее могла забрать война…

Выпущено: Кинороб, Новые люди
Продолжительность: 02:02:49
Перевод: Оригинал
Файл
Кодек: x264
Качество: BDRip (источник: Blu-ray Disc)
Видео: 1920x804 (2,40:1), 24.000 fps (True24p), 8405 kbps
Аудио #1: AC-3, 6 ch, 640 kbps (Rus)
Субтитры: Нет
Скачать: сэмпл
Скриншоты

General
Unique ID : 246485572058982117716879453595550334794 (0xB96F64F7F950456290A2EC56C807BF4A)
Complete name : D:Battle.for.Sevastopol.2015.BDRip.1080p.Rus.mkv
Format : Matroska
Format version : Version 2
File size : 7.76 GiB
Duration : 2h 2mn
Overall bit rate : 9 043 Kbps
Movie name : Битва за Севастополь / Незламна (2015)
Encoded date : UTC 2015-05-16 13:25:36
Writing application : mkvmerge v5.8.0 ('No Sleep / Pillow') built on Sep 2 2012 15:37:04
Writing library : libebml v1.2.3 + libmatroska v1.3.0
Attachements : cover.png / logfile.log
Video
ID : 1
Format : AVC
Format/Info : Advanced Video Codec
Format profile : High@L4.1
Format settings, CABAC : Yes
Format settings, ReFrames : 5 frames
Codec ID : V_MPEG4/ISO/AVC
Duration : 2h 2mn
Bit rate : 8 405 Kbps
Width : 1 920 pixels
Height : 804 pixels
Display aspect ratio : 2.40:1
Frame rate mode : Constant
Frame rate : 24.000 fps
Color space : YUV
Chroma subsampling : 4:2:0
Bit depth : 8 bits
Scan type : Progressive
Bits/(Pixel*Frame) : 0.227
Stream size : 7.05 GiB (91%)
Title : Битва за Севастополь / Незламна (2015)
Writing library : x264 core 146 r0+2586 e393126 t_mod_Custom [8-bit@all X86_64]
Encoding settings : cabac=1 / ref=5 / deblock=1:-3:-3 / analyse=0x3:0x133 / me=umh / subme=10 / psy=1 / fade_compensate=0.00 / psy_rd=1.05:0.00 / mixed_ref=1 / me_range=32 / chroma_me=1 / trellis=2 / 8x8dct=1 / cqm=0 / deadzone=21,11 / fast_pskip=0 / chroma_qp_offset=-2 / threads=12 / lookahead_threads=3 / sliced_threads=0 / nr=0 / decimate=1 / interlaced=0 / bluray_compat=0 / constrained_intra=0 / fgo=0 / bframes=10 / b_pyramid=2 / b_adapt=2 / b_bias=0 / direct=3 / weightb=1 / open_gop=0 / weightp=2 / keyint=240 / keyint_min=24 / scenecut=40 / intra_refresh=0 / rc=2pass / mbtree=0 / bitrate=8405 / ratetol=1.0 / qcomp=0.70 / qpmin=0:0:0 / qpmax=69:69:69 / qpstep=4 / cplxblur=20.0 / qblur=0.5 / ip_ratio=1.40 / pb_ratio=1.30 / aq=1:0.70 / aq-sensitivity=10.00 / aq-factor=1.00:1.00:1.00 / aq2=0 / aq3=0
Language : Russian
Default : Yes
Forced : No
Audio
ID : 2
Format : AC-3
Format/Info : Audio Coding 3
Mode extension : CM (complete main)
Format settings, Endianness : Big
Codec ID : A_AC3
Duration : 2h 2mn
Bit rate mode : Constant
Bit rate : 640 Kbps
Channel(s) : 6 channels
Channel positions : Front: L C R, Side: L R, LFE
Sampling rate : 48.0 KHz
Bit depth : 16 bits
Compression mode : Lossy
Stream size : 562 MiB (7%)
Title : Russian
Language : Russian
Default : Yes
Forced : No
Menu
00:00:00.000 : :Chapter 01
00:10:08.250 : :Chapter 02
00:22:45.250 : :Chapter 03
00:31:29.458 : :Chapter 04
00:44:22.083 : :Chapter 05
00:51:33.833 : :Chapter 06
01:00:40.458 : :Chapter 07
01:10:27.916 : :Chapter 08
01:21:30.458 : :Chapter 09
01:31:47.458 : :Chapter 10
01:43:17.583 : :Chapter 11
01:56:30.333 : :Chapter 12
x264 [info]: frame I:1063 Avg QP:15.07 size:183675
x264 [info]: frame P:46807 Avg QP:17.50 size: 74111
x264 [info]: frame B:128995 Avg QP:19.68 size: 31583
x264 [info]: consecutive B-frames: 4.8% 5.0% 16.7% 20.0% 13.8% 35.4% 2.2% 0.4% 0.9% 0.1% 0.6%



   Похожие торренты   Торрент   Размер 
В этой теме нет новых непрочитанных сообщений. Битва за Севастополь (2015) BDRip 1080p | Лицензия

507 | 49

10.42 ГБ

В этой теме нет новых непрочитанных сообщений. Битва за Севастополь (2015) BDRemux 1080p | Лицензия

532 | 101

20.04 ГБ

В этой теме нет новых непрочитанных сообщений. Битва за Севастополь (2015) BDRip-AVC | Лицензия

1187 | 87

3.28 ГБ

В этой теме нет новых непрочитанных сообщений. Битва за Севастополь (2015) BDRip 720p | Лицензия

299 | 29

6.13 ГБ

В этой теме нет новых непрочитанных сообщений. Битва за Севастополь (2015) BDRip 720p | Лицензия

1422 | 86

4.38 ГБ

В этой теме нет новых непрочитанных сообщений. Битва за Севастополь (2015) BDRip 720p | Лицензия

149 | 10

5.29 ГБ

В этой теме нет новых непрочитанных сообщений. Битва за Севастополь / Незламна (2015) BDRip от HQCLUB | Лицензия

710 | 36

2.18 ГБ




Вы не можете начинать темы
Вы не можете отвечать на сообщения
Вы не можете редактировать свои сообщения
Вы не можете удалять свои сообщения
Вы не можете добавлять вложения

Перейти:  
Для Мосгорсуда, Роскомнадзора и рекламодателей: mosgorsud-torrent[собачка]yandex.ru
Настройки
ppkBB3cker v.2 © 2008-2014 @ PPK
[ Time : 0.018s | 14 Queries | GZIP : Off ]
CGP [Extreme] output time : 0.00013s | 0 Queries | GZIP : Off

Торрент трекер RUTOR.IN, Не можете зайти на rutor.org? Какой новый адрес рутор? Какое зеркало рутор? Не работает rutor.org и зеркала? Тогда наш торрент специально для вас. Rutor.in неофициальное зеркало rutor. В случае если у Вас заблокирован rutor или вдруг Вы не можете на него зайти, то Вы без труда сможете скачать бесплатно и без рекламы последние новинки кино, игр, сериалов и прочего у нас, на Rutor.in. Не нужно использовать прокси, чтобы зайти на рутор, достаточно воспользоваться нашим ресурсом. Все новые фильмы, игры, сериалы, книги и музыка за 2013 и 2014 годы через торрент бесплатно. Скачивайте фильмы в хорошем качестве, игры для пк, xbox, playstation без регистрации. У нас вы найдете новые Зарубежные сериалы и Русские сериалы 2013, 2014, 2015 годов. Оставайтесь с нами, качайте любимые фильмы, игры, сериалы, книги и музыку.