img image001 image001 image001 image001 image001 image001 image001 image001 image001 image001 image001 image001 image001 image001 image001

Planets Sun Sun Sun
Статистика раздачи
Автор: Nickolas3434 | Размер: 8.44 ГБ | Добавлен: 24 май 2015
Раздают: 50    Качают: 2
Скачать торрент
Скачать торрент
Описание торрента

СообщениеДобавлено: 24 май 2015 


Оригинальное название: Август. Восьмого
Год выхода: 2012
Жанр: Драма, военный
Режиссер: Джаник Файзиев
В ролях: Светлана Иванова, Максим Матвеев, Егор Бероев, Артём Фадеев, Владимир Вдовиченков, Сергей Газаров, Гоша Куценко, Анатолий Белый, Кирилл Плетнёв, Алексей Гуськов, Александр Олешко, Константин Самоуков, Дмитрий Наумов, Хасан Бароев, Родион Галюченко, Лидия Вележева, Анна Легчилова, Евгений Штырбул, Виктор Фалалеев, Ольга Мокшина, Владимир Зайцев, Евгений Харланов, Константин Глушков, Евгения Шипова, Валентин Варецкий, Александр Карамнов, Теймураз Тания, Юлия Салмина
О фильме:
Когда события нанизываются одно на другое, когда каждая минута ставит тебя перед выбором, когда жизнь и смерть становятся частью страшной компьютерной игры, пульт от которой — в чужих руках, тогда ты начинаешь действовать так, будто каждая минута — последняя. Казалось бы, жизнь хорошенькой разведенной москвички Ксении оставляет не много места для драматических ситуаций: да, сын Тема тяжело переживает развод родителей, да, поклонник поглощен карьерой, да, мама вмешивается в личную жизнь, — но трудно назвать эти обстоятельства критическими. Все меняется, когда бывший муж, офицер миротворческих сил, просит Ксению прислать Тему к нему, подышать горным воздухом в прекрасной деревушке в доме его родителей! Он уверяет, что это совершенно безопасно — да маленький Тема и не чувствует никакого страха, ведь рядом папа, добрый и непобедимый герой. Но наступает день, когда вражеские танки входят в город — и мир самых страшных игровых иллюзий мальчика становится реальностью. На экране оживают компьютерные драконы и злые космические демоны, втягивая живых людей в огненную вакханалию войны. Ксения обязана выжить в военном аду, пройти через адскую мясорубку прошитого пулями города, чтобы спасти того кого любит. У нее нет другой цели — и нет другого пути.
Страна: Россия
Студия: Бонанза Студио
Продолжительность: 02:12:18
Язык: Русский
Кодек: MPEG-4 AVC
Качество: BDRip 720p
Видео: 1280x544, 7646 Кбит/с, 23.976 fps
Звук: DTS, 6 ch, 1510 Кбит/с
Семпл
Сравнение
x264 [info]: frame I:1311 Avg QP:15.71 size:155248
x264 [info]: frame P:57333 Avg QP:18.75 size: 63122
x264 [info]: frame B:131682 Avg QP:21.28 size: 28417
----------------------------------------------------------------------------------------------------------------------------
General
Unique ID : 239575156438834124419276481218392295077 (0xB43C7F2C6DCA3E4A9BEA7297498306A5)
Complete name : J:War.zone.2012.x264.BDRip.(720p).mkv
Format : Matroska
Format version : Version 2
File size : 8.44 GiB
Duration : 2h 12mn
Overall bit rate : 9 135 Kbps
Movie name : War zone / 2012 / Rip by PowerRock / ExKinoRay
Encoded date : UTC 2015-05-23 09:13:42
Writing application : mkvmerge v7.8.0 ('River Man') 32bit built on Apr 3 2015 12:11:22
Writing library : libebml v1.3.1 + libmatroska v1.4.2
Attachements : cover.jpg
Video
ID : 1
Format : AVC
Format/Info : Advanced Video Codec
Format profile : High@L4.1
Format settings, CABAC : Yes
Format settings, ReFrames : 9 frames
Codec ID : V_MPEG4/ISO/AVC
Duration : 2h 12mn
Bit rate : 7 646 Kbps
Width : 1 280 pixels
Height : 544 pixels
Display aspect ratio : 2.35:1
Frame rate mode : Constant
Frame rate : 23.976 fps
Color space : YUV
Chroma subsampling : 4:2:0
Bit depth : 8 bits
Scan type : Progressive
Bits/(Pixel*Frame) : 0.458
Stream size : 6.88 GiB (81%)
Title : War zone / 2012
Writing library : x264 core 146 r2538 121396c
Encoding settings : cabac=1 / ref=9 / deblock=1:-3:-3 / analyse=0x3:0x113 / me=umh / subme=10 / psy=1 / psy_rd=1.00:0.00 / mixed_ref=1 / me_range=32 / chroma_me=1 / trellis=2 / 8x8dct=1 / cqm=0 / deadzone=21,11 / fast_pskip=0 / chroma_qp_offset=-2 / threads=6 / lookahead_threads=1 / sliced_threads=0 / nr=0 / decimate=1 / interlaced=0 / bluray_compat=0 / constrained_intra=0 / bframes=10 / b_pyramid=2 / b_adapt=2 / b_bias=0 / direct=3 / weightb=1 / open_gop=0 / weightp=2 / keyint=250 / keyint_min=23 / scenecut=40 / intra_refresh=0 / rc_lookahead=50 / rc=2pass / mbtree=1 / bitrate=7646 / ratetol=1.0 / qcomp=0.60 / qpmin=10 / qpmax=51 / qpstep=4 / cplxblur=20.0 / qblur=0.5 / vbv_maxrate=14000 / vbv_bufsize=14000 / nal_hrd=none / filler=0 / ip_ratio=1.40 / aq=1:1.00
Default : Yes
Forced : No
Audio
ID : 2
Format : DTS
Format/Info : Digital Theater Systems
Mode : 16
Format settings, Endianness : Big
Codec ID : A_DTS
Duration : 2h 12mn
Bit rate mode : Constant
Bit rate : 1 509 Kbps
Channel(s) : 6 channels
Channel positions : Front: L C R, Side: L R, LFE
Sampling rate : 48.0 KHz
Bit depth : 16 bits
Compression mode : Lossy
Stream size : 1.39 GiB (17%)
Language : Russian
Default : Yes
Forced : No
Menu
00:00:00.000 : :Chapter 01
00:07:23.067 : :Chapter 02
00:15:59.792 : :Chapter 03
00:23:46.425 : :Chapter 04
00:32:33.868 : :Chapter 05
00:41:36.160 : :Chapter 06
00:49:42.479 : :Chapter 07
00:57:45.670 : :Chapter 08
01:03:07.909 : :Chapter 09
01:10:03.115 : :Chapter 10
01:18:45.137 : :Chapter 11
01:25:16.402 : :Chapter 12
01:34:30.998 : :Chapter 13
01:45:52.346 : :Chapter 14
01:59:40.256 : :Chapter 15
02:08:11.392 : :Chapter 16




Релиз от:



   Похожие торренты   Торрент   Размер 
В этой теме нет новых непрочитанных сообщений. Август. Восьмого (2012) BDRip 720p | FRE Transfer | Лицензия

113 | 13

6.74 ГБ

В этой теме нет новых непрочитанных сообщений. Август. Восьмого (2012) BDRip 720p | Лицензия

6 | 2

4.36 ГБ

В этой теме нет новых непрочитанных сообщений. Август. Восьмого (2012) BDRip 720p от leonardo 59 | Лицензия

13 | 3

7.1 ГБ

В этой теме нет новых непрочитанных сообщений. Август. Восьмого (2012) BDRip | Лицензия

10 | 3

1.38 ГБ

В этой теме нет новых непрочитанных сообщений. Август. Восьмого (2012) BDRip от HELLYWOOD

7 | 2

2.18 ГБ

В этой теме нет новых непрочитанных сообщений. Август. Восьмого (2012) BDRip 1080p

0 | 3

8.91 ГБ

В этой теме нет новых непрочитанных сообщений. Август. Восьмого (2012) BDRip 1080p

23 | 7

4.37 ГБ




Вы не можете начинать темы
Вы не можете отвечать на сообщения
Вы не можете редактировать свои сообщения
Вы не можете удалять свои сообщения
Вы не можете добавлять вложения

Перейти:  
Для Мосгорсуда, Роскомнадзора и рекламодателей: mosgorsud-torrent[собачка]yandex.ru
 Вход
ppkBB3cker v.2 © 2008-2014 @ PPK
[ Time : 1.023s | 14 Queries | GZIP : Off ]

Торрент трекер RUTOR.IN, Не можете зайти на rutor.org? Какой новый адрес рутор? Какое зеркало рутор? Не работает rutor.org и зеркала? Тогда наш торрент специально для вас. Rutor.in неофициальное зеркало rutor. В случае если у Вас заблокирован rutor или вдруг Вы не можете на него зайти, то Вы без труда сможете скачать бесплатно и без рекламы последние новинки кино, игр, сериалов и прочего у нас, на Rutor.in. Не нужно использовать прокси, чтобы зайти на рутор, достаточно воспользоваться нашим ресурсом. Все новые фильмы, игры, сериалы, книги и музыка за 2013 и 2014 годы через торрент бесплатно. Скачивайте фильмы в хорошем качестве, игры для пк, xbox, playstation без регистрации. У нас вы найдете новые Зарубежные сериалы и Русские сериалы 2013, 2014, 2015 годов. Оставайтесь с нами, качайте любимые фильмы, игры, сериалы, книги и музыку.