img image001 image001 image001 image001 image001 image001 image001 image001 image001 image001 image001 image001 image001 image001 image001

Planets Sun Sun Sun
Статистика раздачи
Автор: Nickolas3434 | Размер: 1.09 ГБ | Добавлен: 26 май 2015
Раздают: 21    Качают: 13
Скачать торрент
Скачать торрент
Описание торрента

СообщениеДобавлено: 26 май 2015 

Страна: СССР
Производство: Мосфильм
Жанр: мюзикл, комедия
Год выпуска: 1946
Продолжительность: 01:05:43
Перевод: Не требуется
Cубтитры: нет
Оригинальная аудиодорожка: русский
Режиссер: Игорь Савченко
В ролях:
Максим Штраух, Елена Швецова, Анна Лисянская, Николай Гриценко, Сергей Столяров, Александра Панова, А. Павлова, В. Рябцева, Людмила Семенова, Н. Сокол, Аркадий Цинман...
Описание:
После победы над Наполеоном русские войска возвращаются в Москву… Восемнадцатилетняя Любочка получит наследство своей тетушки при условии, что выйдет замуж за человека, имя и фамилия которого начинаются с букв «аз» и «ферт». Люба влюблена в молодого гусара Антона Фадеева, но ее отец не хочет и слышать о свадьбе дочери с бедным офицером. После веселых неурядиц клубок противоречий распутывается ко всеобщему благополучию…






Источник: DVD5 R5
Качество видео: DVDRip
Формат видео: AVI
Видео: 688x512 (4:3), 25 fps, XviD ~ 2170 kbps avg, 0.246 bit/pixel
Аудио: 48 kHz, Dolby Digital AC3 2.0, 192 kbps
Раздача от:
Общее
Полное имя : Starinnyy.vodevil.1946.DVDRip_[New-team]_by_AVP_Studio.avi
Формат : AVI
Формат/Информация : Audio Video Interleave
Размер файла : 1,09 Гбайт
Продолжительность : 1 ч. 5 м.
Общий поток : 2372 Кбит/сек
Программа кодирования : VirtualDubModRus 1.5.10.2 (build 2542/release)
Библиотека кодирования : VirtualDubMod build 2542/release
Видео
Идентификатор : 0
Формат : MPEG-4 Visual
Профиль формата : Advanced Simple@L5
Параметр BVOP формата : 1
Параметр QPel формата : Нет
Параметр GMC формата : Без точки перехода
Параметр матрицы формата : Выборочная
Идентификатор кодека : XVID
Идентификатор кодека/Подсказка : XviD
Продолжительность : 1 ч. 5 м.
Битрейт : 2170 Кбит/сек
Ширина : 688 пикселей
Высота : 512 пикселей
Соотношение сторон : 4:3
Частота кадров : 25,000 кадров/сек
Цветовое пространство : YUV
Субдискретизация насыщенности : 4:2:0
Битовая глубина : 8 бит
Тип развёртки : Прогрессивная
Метод сжатия : С потерями
Бит/(Пиксели*Кадры) : 0.246
Размер потока : 1020 Мбайт (91%)
Библиотека кодирования : XviD 73
Аудио
Идентификатор : 1
Формат : AC-3
Формат/Информация : Audio Coding 3
Расширение режима : CM (complete main)
Параметр Endianness формата : Big
Идентификатор кодека : 2000
Продолжительность : 1 ч. 5 м.
Вид битрейта : Постоянный
Битрейт : 192 Кбит/сек
Каналы : 2 канала
Расположение каналов : Front: L R
Частота : 48,0 КГц
Битовая глубина : 16 бит
Метод сжатия : С потерями
Размер потока : 90,2 Мбайт (8%)
Выравнивание : Разделение по промежуткам
Продолжительность промежутка : 40 мс. (1,00 видеокадр)
Время предзагрузки промежутка : 500 мс





   Похожие торренты   Торрент   Размер 
В этой теме нет новых непрочитанных сообщений. Старинный водевиль (1946) DVDRip от New-Team

4 | 2

745.24 МБ

В этой теме нет новых непрочитанных сообщений. Старинный водевиль (1946) DVDRip-AVC от New-Team

8 | 2

744.47 МБ

В этой теме нет новых непрочитанных сообщений. Ах, водевиль, водевиль... (1979) DVDRip от New-Team

15 | 8

1.1 ГБ

В этой теме нет новых непрочитанных сообщений. Ах, водевиль, водевиль... (1979) DVDRip от New-Team

112 | 13

742.62 МБ

В этой теме нет новых непрочитанных сообщений. Ах, водевиль, водевиль... (1979) DVDRip-AVC от New-Team

17 | 6

1.09 ГБ

В этой теме нет новых непрочитанных сообщений. Ах, водевиль, водевиль... (1979) DVDRip

158 | 15

1.19 ГБ

В этой теме нет новых непрочитанных сообщений. Ах, водевиль, водевиль... (1979) DVD5

32 | 6

4.28 ГБ




Вы не можете начинать темы
Вы не можете отвечать на сообщения
Вы не можете редактировать свои сообщения
Вы не можете удалять свои сообщения
Вы не можете добавлять вложения

Перейти:  
Для Мосгорсуда, Роскомнадзора и рекламодателей: mosgorsud-torrent[собачка]yandex.ru
 Вход
ppkBB3cker v.2 © 2008-2014 @ PPK
[ Time : 0.080s | 16 Queries | GZIP : Off ]

cron