img image001 image001 image001 image001 image001 image001 image001 image001 image001 image001 image001 image001 image001 image001 image001

Planets Sun Sun Sun
Статистика раздачи
Автор: Nickolas3434 | Размер: 3.6 ГБ | Добавлен: 27 май 2015
Раздают: 632    Качают: 35
Скачать торрент
Скачать торрент
Описание торрента

СообщениеДобавлено: 27 май 2015 

Информация о фильме
Название: Золотой теленок
Год выхода: 1968
Жанр: Комедия
Режиссер: Михаил Швейцер
В ролях: Сергей Юрский, Леонид Куравлев, Зиновий Гердт, Евгений Евстигнеев, Светлана Старикова, Павел Винник, Игорь Ясулович, Раднэр Муратов, Тамара Семина, Николай Боярский, Константин Воинов, Дмитрий Орловский, Евгений Перов, Александра Денисова, Павел Павленко, Владимир Пицек, Николай Сергеев, Александр Январев, Игорь Кашинцев, Михаил Кокшенов, Евгений Гуров, Анатолий Обухов
О фильме:
«Великий комбинатор» Остап Бендер с детства мечтает о Рио-де-Жанейро. Ему известны множество способов «сравнительно честного отъема денег у граждан». Но — где же в Советской России найти гражданина, обладающего хотя бы полумиллионом рублей? И вот подпольный миллионер, выдающий себя за скромного служащего на нищенском жалованьи, найден.
И должен сам принести деньги Остапу «на блюдечке с голубой каемочкой». Как же великий комбинатор добьется этого? Сбудется ли мечта его детства? Об этом расскажет зрителю этот фильм с великолепным актерским ансамблем — Сергей Юрский, Леонид Куравлев, Зиновий Гердт, Евгений Евстигнеев…

Страна: СССР
Студия: Мосфильм
Продолжительность: 02:44:01
Качество: DVDRip-AVC
Формат: MKV
Видео: High@L4.1; 1024x460 @ 25.00fps; ~2650Kbps
Аудио: AC3, 48000 Hz, 6ch, 448 kbps
General
Unique ID : 79046689226439228258666044531385458976 (0x3B77D6AD1616D06CDAD08FB8121A6120)
Complete name : F:Золотой теленок.(1968).DVDRIP_AVC.[-=DoMiNo=-].mkv
Format : Matroska
Format version : Version 4 / Version 2
File size : 3.60 GiB
Duration : 2h 44mn
Overall bit rate : 3 141 Kbps
Writing application : XviD4PSP 7.0.133
Writing library : Lavf56.15.102
Video
ID : 1
Format : AVC
Format/Info : Advanced Video Codec
Format profile : High@L4.1
Format settings, CABAC : Yes
Format settings, ReFrames : 12 frames
Codec ID : V_MPEG4/ISO/AVC
Duration : 2h 44mn
Bit rate : 2 631 Kbps
Width : 1 024 pixels
Height : 460 pixels
Display aspect ratio : 2.226
Frame rate mode : Constant
Frame rate : 25.000 fps
Color space : YUV
Chroma subsampling : 4:2:0
Bit depth : 8 bits
Scan type : Progressive
Bits/(Pixel*Frame) : 0.223
Stream size : 3.01 GiB (84%)
Writing library : x264 core 146 r2538M 121396c
Encoding settings : cabac=1 / ref=12 / deblock=1:-3:-3 / analyse=0x3:0x133 / me=umh / subme=10 / psy=1 / psy_rd=1,00:0,10 / mixed_ref=1 / me_range=32 / chroma_me=1 / trellis=2 / 8x8dct=1 / cqm=0 / deadzone=21,11 / fast_pskip=0 / chroma_qp_offset=-3 / threads=12 / lookahead_threads=3 / sliced_threads=0 / nr=0 / decimate=1 / interlaced=0 / bluray_compat=0 / constrained_intra=0 / bframes=11 / b_pyramid=2 / b_adapt=2 / b_bias=0 / direct=1 / weightb=1 / open_gop=0 / weightp=2 / keyint=250 / keyint_min=25 / scenecut=40 / intra_refresh=0 / rc=crf / mbtree=0 / crf=18,0 / qcomp=0,60 / qpmin=10 / qpmax=69 / qpstep=4 / ip_ratio=1,40 / pb_ratio=1,30 / aq=1:1,00
Default : Yes
Forced : No
Color range : Limited
Color primaries : BT.601 PAL
Transfer characteristics : BT.470 System B, BT.470 System G
Matrix coefficients : BT.601
Audio
ID : 2
Format : AC-3
Format/Info : Audio Coding 3
Mode extension : CM (complete main)
Format settings, Endianness : Big
Codec ID : A_AC3
Duration : 2h 44mn
Bit rate mode : Constant
Bit rate : 448 Kbps
Channel(s) : 6 channels
Channel positions : Front: L C R, Side: L R, LFE
Sampling rate : 48.0 KHz
Bit depth : 32 bits
Compression mode : Lossy
Stream size : 526 MiB (14%)
Language : Russian
Default : Yes
Forced : No
Menu
00:00:00.000 : :Chapter 1
00:06:05.321 : :Chapter 2
00:11:35.861 : :Chapter 3
00:19:42.259 : :Chapter 4
00:22:28.565 : :Chapter 5
00:25:56.897 : :Chapter 6
00:27:54.031 : :Chapter 7
00:42:27.705 : :Chapter 8
00:46:07.024 : :Chapter 9
00:55:42.669 : :Chapter 10
01:05:16.152 : :Chapter 11
01:08:17.467 : :Chapter 12
01:11:08.576 : :Chapter 13
01:17:51.071 : :Chapter 14
01:24:30.685 : :Chapter 15
01:29:30.965 : :Chapter 16
01:42:34.822 : :Chapter 17
01:44:10.883 : :Chapter 18
01:49:34.218 : :Chapter 19
01:56:52.826 : :Chapter 20
02:01:18.134 : :Chapter 21
02:04:54.271 : :Chapter 22
02:11:35.896 : :Chapter 23
02:14:04.310 : :Chapter 24
02:22:00.862 : :Chapter 25
02:27:12.099 : :Chapter 26
02:34:48.569 : :Chapter 27
02:39:13.787 : :Chapter 28








   Похожие торренты   Торрент   Размер 
В этой теме нет новых непрочитанных сообщений. Золотой теленок (1968) DVDRip

933 | 86

1.37 ГБ

В этой теме нет новых непрочитанных сообщений. Золотой теленок (1968) DVDRip-AVC

197 | 12

2.16 ГБ

В этой теме нет новых непрочитанных сообщений. Золотой теленок (1968) DVDRip от Alekxandr48

100 | 11

1.95 ГБ

В этой теме нет новых непрочитанных сообщений. Золотой теленок [01-02 из 02] (1968) DVDRip от MediaClub | КПК

220 | 17

738.84 МБ

В этой теме нет новых непрочитанных сообщений. Золотой телёнок (1968) HDTVRip 720p

2496 | 134

5.09 ГБ

В этой теме нет новых непрочитанных сообщений. Золотой теленок (2006) PC

17 | 4

1.3 ГБ

В этой теме нет новых непрочитанных сообщений. И.Ильф, Е.Петров - Золотой теленок / аудиоспектакль (2002) MP3

84 | 5

230.75 МБ




Вы не можете начинать темы
Вы не можете отвечать на сообщения
Вы не можете редактировать свои сообщения
Вы не можете удалять свои сообщения
Вы не можете добавлять вложения

Перейти:  
Для Мосгорсуда, Роскомнадзора и рекламодателей: mosgorsud-torrent[собачка]yandex.ru
 Вход
ppkBB3cker v.2 © 2008-2014 @ PPK
[ Time : 0.043s | 15 Queries | GZIP : Off ]
CGP output time : 0.021s | 5 Queries | GZIP : Off

Торрент трекер RUTOR.IN, Не можете зайти на rutor.org? Какой новый адрес рутор? Какое зеркало рутор? Не работает rutor.org и зеркала? Тогда наш торрент специально для вас. Rutor.in неофициальное зеркало rutor. В случае если у Вас заблокирован rutor или вдруг Вы не можете на него зайти, то Вы без труда сможете скачать бесплатно и без рекламы последние новинки кино, игр, сериалов и прочего у нас, на Rutor.in. Не нужно использовать прокси, чтобы зайти на рутор, достаточно воспользоваться нашим ресурсом. Все новые фильмы, игры, сериалы, книги и музыка за 2013 и 2014 годы через торрент бесплатно. Скачивайте фильмы в хорошем качестве, игры для пк, xbox, playstation без регистрации. У нас вы найдете новые Зарубежные сериалы и Русские сериалы 2013, 2014, 2015 годов. Оставайтесь с нами, качайте любимые фильмы, игры, сериалы, книги и музыку.