img image001 image001 image001 image001 image001 image001 image001 image001 image001 image001 image001 image001 image001 image001 image001

Planets Sun Sun Sun
Статистика раздачи
Автор: Nickolas3434 | Размер: 40.37 МБ | Добавлен: 27 май 2015
Раздают: 95    Качают: 20
Скачать торрент
Скачать торрент
Описание торрента

СообщениеДобавлено: 27 май 2015 


Год выпуска: 2016
Производство: Россия
Жанр: Триллер, фантастика
Режиссер: Алексей Талызин
Продюсеры: Алексей Талызин, Алексей Эрберг
Актеры: Максим Пономарёв, Александр Удалов
Описание фильма:
Сюжет картины строится вокруг финансиста Макса — ему в руки попадает прибор, который может материализовывать желаемое, в том числе деньги. И подобный «подарок» судьбы застаёт Макса в трудный период его жизни. Его намеренно подставляют и увольняют с работы, а единственный близкий и дорогой ему человек — младшая сестра, борется за жизнь с тяжёлой болезнью, на лечение которой требуется большая сумма денег. Казалось бы, подобный прибор может только помочь Максу. Но за ним начинает охотиться некий Агент, угрожая уже его жизни.
Дата мировой премьеры: 2016

Продолжительность: 00:01:58
Качество видео: WEBRip
Видеокодек: MPEG-4 AVC/H.264
Битрейт видео: 2600 Кбит/сек
Размер кадра: 1920x1080
Аудиокодек: AC3 2.0
Битрейт аудио: 254 Кбит/сек
Общее
Полное имя : Кое-что задаром Русский Тизер-Трейлер (2016).mp4
Формат : MPEG-4
Профиль формата : Base Media
Идентификатор кодека : isom
Размер файла : 40,4 Мбайт
Продолжительность : 1 м. 58 с.
Общий поток : 2857 Кбит/сек
Программа кодирования : Lavf56.19.100
Видео
Идентификатор : 1
Формат : AVC
Формат/Информация : Advanced Video Codec
Профиль формата : High@L4
Параметр CABAC формата : Да
Параметр ReFrames формата : 2 кадра
Идентификатор кодека : avc1
Идентификатор кодека/Информация : Advanced Video Coding
Продолжительность : 1 м. 58 с.
Битрейт : 2600 Кбит/сек
Ширина : 1920 пикселей
Высота : 1080 пикселей
Соотношение сторон : 16:9
Режим частоты кадров : Постоянный
Частота кадров : 25,000 кадров/сек
Цветовое пространство : YUV
Субдискретизация насыщенности : 4:2:0
Битовая глубина : 8 бит
Тип развёртки : Прогрессивная
Бит/(Пиксели*Кадры) : 0.050
Размер потока : 36,7 Мбайт (91%)
Аудио
Идентификатор : 2
Формат : AAC
Формат/Информация : Advanced Audio Codec
Профиль формата : LC
Идентификатор кодека : 40
Продолжительность : 1 м. 58 с.
Вид битрейта : Постоянный
Битрейт : 254 Кбит/сек
Каналы : 2 канала
Расположение каналов : Front: L R
Частота : 44,1 КГц
Метод сжатия : С потерями
Размер потока : 3,58 Мбайт (9%)

Скриншоты








   Похожие торренты   Торрент   Размер 
В этой теме нет новых непрочитанных сообщений. Dishonored 2 (2016) WEBRip 1080p | Трейлер

41 | 1

86.39 МБ

В этой теме нет новых непрочитанных сообщений. Землетрясение (2016) WEBRip-1080p | Трейлер

35 | 0

131.97 МБ

В этой теме нет новых непрочитанных сообщений. Коловрат. Восхождение (2016) WEBRip 1080p | Трейлер

488 | 31

119.81 МБ

В этой теме нет новых непрочитанных сообщений. Варкрафт / Warcraft (2016) WEBRip 1080p | Трейлер#2

663 | 21

229.67 МБ

В этой теме нет новых непрочитанных сообщений. Homefront: The Revolution (2016) WEBRip 1080p | D | Трейлер

16 | 3

66.54 МБ

В этой теме нет новых непрочитанных сообщений. Дэдпул / Deadpool (2016) WEBRip 1080p | Трейлер

10313 | 1820

368.43 МБ

В этой теме нет новых непрочитанных сообщений. Final Fantasy XV (2016) WEBRip 1080p | Sub | Трейлер

13 | 4

127.65 МБ




Вы не можете начинать темы
Вы не можете отвечать на сообщения
Вы не можете редактировать свои сообщения
Вы не можете удалять свои сообщения
Вы не можете добавлять вложения

Перейти:  
Для Мосгорсуда, Роскомнадзора и рекламодателей: mosgorsud-torrent[собачка]yandex.ru
 Вход
ppkBB3cker v.2 © 2008-2014 @ PPK
[ Time : 0.054s | 15 Queries | GZIP : Off ]

Торрент трекер RUTOR.IN, Не можете зайти на rutor.org? Какой новый адрес рутор? Какое зеркало рутор? Не работает rutor.org и зеркала? Тогда наш торрент специально для вас. Rutor.in неофициальное зеркало rutor. В случае если у Вас заблокирован rutor или вдруг Вы не можете на него зайти, то Вы без труда сможете скачать бесплатно и без рекламы последние новинки кино, игр, сериалов и прочего у нас, на Rutor.in. Не нужно использовать прокси, чтобы зайти на рутор, достаточно воспользоваться нашим ресурсом. Все новые фильмы, игры, сериалы, книги и музыка за 2013 и 2014 годы через торрент бесплатно. Скачивайте фильмы в хорошем качестве, игры для пк, xbox, playstation без регистрации. У нас вы найдете новые Зарубежные сериалы и Русские сериалы 2013, 2014, 2015 годов. Оставайтесь с нами, качайте любимые фильмы, игры, сериалы, книги и музыку.
cron