img image001 image001 image001 image001 image001 image001 image001 image001 image001 image001 image001 image001 image001 image001 image001

Planets Sun Sun Sun
Статистика раздачи
Автор: Nickolas3434 | Размер: 119.81 МБ | Добавлен: 30 май 2015
Раздают: 476    Качают: 32
Скачать торрент
Скачать торрент
Описание торрента

СообщениеДобавлено: 30 май 2015 


Год выпуска: 2016
Производство: Россия
Жанр: история, боевик, триллер, драма
Режиссер: Рустам Мосафир
Продюсеры: Рустам Мосафир, Александр Наас
Описание фильма:
Первая часть саги, рассказывающая о становлении легендарного русского богатыря Евпатия Коловрата.
Дата мировой премьеры: 2016

Продолжительность: 00:05:28
Качество видео: WEBRip
Видеокодек: MPEG-4 AVC/H.264
Битрейт видео: 2800 Кбит/сек
Размер кадра: 1920x1080
Аудиокодек: AC3 2.0
Битрейт аудио: 254 Кбит/сек
Общее
Полное имя : Коловрат. Восхождение (2016) Русский Тизер.mp4
Формат : MPEG-4
Профиль формата : Base Media
Идентификатор кодека : isom
Размер файла : 120 Мбайт
Продолжительность : 5 м. 28 с.
Общий поток : 3059 Кбит/сек
Программа кодирования : Lavf56.19.100
Видео
Идентификатор : 1
Формат : AVC
Формат/Информация : Advanced Video Codec
Профиль формата : High@L4
Параметр CABAC формата : Да
Параметр ReFrames формата : 2 кадра
Идентификатор кодека : avc1
Идентификатор кодека/Информация : Advanced Video Coding
Продолжительность : 5 м. 28 с.
Битрейт : 2800 Кбит/сек
Ширина : 1920 пикселей
Высота : 816 пикселей
Соотношение сторон : 2,35:1
Режим частоты кадров : Постоянный
Частота кадров : 25,000 кадров/сек
Цветовое пространство : YUV
Субдискретизация насыщенности : 4:2:0
Битовая глубина : 8 бит
Тип развёртки : Прогрессивная
Бит/(Пиксели*Кадры) : 0.071
Размер потока : 110 Мбайт (92%)
Аудио
Идентификатор : 2
Формат : AAC
Формат/Информация : Advanced Audio Codec
Профиль формата : LC
Идентификатор кодека : 40
Продолжительность : 5 м. 28 с.
Вид битрейта : Постоянный
Битрейт : 254 Кбит/сек
Каналы : 2 канала
Расположение каналов : Front: L R
Частота : 44,1 КГц
Метод сжатия : С потерями
Размер потока : 9,93 Мбайт (8%)

Скриншоты








   Похожие торренты   Торрент   Размер 
В этой теме нет новых непрочитанных сообщений. Восхождение Юпитер / Jupiter Ascending (2014) HD 1080p | Трейлер

198 | 14

112.7 МБ

В этой теме нет новых непрочитанных сообщений. Кое-что задаром (2016) WEBRip 1080p | Трейлер

97 | 20

40.37 МБ

В этой теме нет новых непрочитанных сообщений. Dishonored 2 (2016) WEBRip 1080p | Трейлер

47 | 1

86.39 МБ

В этой теме нет новых непрочитанных сообщений. Землетрясение (2016) WEBRip-1080p | Трейлер

35 | 0

131.97 МБ

В этой теме нет новых непрочитанных сообщений. Варкрафт / Warcraft (2016) WEBRip 1080p | Трейлер#2

663 | 21

229.67 МБ

В этой теме нет новых непрочитанных сообщений. Дэдпул / Deadpool (2016) WEBRip 1080p | Трейлер

10313 | 1820

368.43 МБ

В этой теме нет новых непрочитанных сообщений. Final Fantasy XV (2016) WEBRip 1080p | Sub | Трейлер

13 | 4

127.65 МБ




Вы не можете начинать темы
Вы не можете отвечать на сообщения
Вы не можете редактировать свои сообщения
Вы не можете удалять свои сообщения
Вы не можете добавлять вложения

Перейти:  
Для Мосгорсуда, Роскомнадзора и рекламодателей: mosgorsud-torrent[собачка]yandex.ru
 Вход
ppkBB3cker v.2 © 2008-2014 @ PPK
[ Time : 0.044s | 14 Queries | GZIP : Off ]

Торрент трекер RUTOR.IN, Не можете зайти на rutor.org? Какой новый адрес рутор? Какое зеркало рутор? Не работает rutor.org и зеркала? Тогда наш торрент специально для вас. Rutor.in неофициальное зеркало rutor. В случае если у Вас заблокирован rutor или вдруг Вы не можете на него зайти, то Вы без труда сможете скачать бесплатно и без рекламы последние новинки кино, игр, сериалов и прочего у нас, на Rutor.in. Не нужно использовать прокси, чтобы зайти на рутор, достаточно воспользоваться нашим ресурсом. Все новые фильмы, игры, сериалы, книги и музыка за 2013 и 2014 годы через торрент бесплатно. Скачивайте фильмы в хорошем качестве, игры для пк, xbox, playstation без регистрации. У нас вы найдете новые Зарубежные сериалы и Русские сериалы 2013, 2014, 2015 годов. Оставайтесь с нами, качайте любимые фильмы, игры, сериалы, книги и музыку.