img image001 image001 image001 image001 image001 image001 image001 image001 image001 image001 image001 image001 image001 image001 image001

Planets Sun Sun Sun
Статистика раздачи
Автор: Nickolas3434 | Размер: 745.7 МБ | Добавлен: 03 июн 2015
Раздают: 5    Качают: 8
Скачать торрент
Скачать торрент
Описание торрента

СообщениеДобавлено: 03 июн 2015 

Страна: СССР
Производство: Киевская киностудия
Жанр: драма, военный
Год выпуска: 1946
Продолжительность: 01:18:32
Перевод: Не требуется
Cубтитры: нет
Оригинальная аудиодорожка: русский
Режиссер: Борис Дмоховский, Сигизмунд Навроцкий
В ролях:
Борис Дмоховский, Владимир Освецимский, Владимир Шишкин, Дмитрий Голубинский, Чеслав Сушкевич, П. Скороход, Ирена Мурова, Алексей Добронравов, Б. Гончаров, Ганс Клеринг, Дмитрий Милютенко, Михаил Высоцкий, Михаил Роменский, Евгения Опалова, Сергей Петров, Алексей Таршин, М. Гродский, Михаил Романов, Борис Добронравов...
Описание:
Польский антифашист Зигмунд Големба, выдавая себя то за барона Федруччи, то за католического ксендза, взрывает немецкие штабы, освобождает пленных поляков, убивает гестаповских генералов. Его имя становится символом мести и ненависти к врагу…





Источник: DVD5 R5
Качество видео: DVDRip
Формат видео: AVI
Видео: 640x480 (4:3), 25 fps, XviD ~ 1190 kbps avg, 0.155 bit/pixel
Аудио: 48 kHz, MP3 2.0, 128 kbps
Раздача от:
Общее
Полное имя : Zigmund.Kolosovskiy.1946.DVDRip-745_[New-team]_by_AVP_Studio.avi
Формат : AVI
Формат/Информация : Audio Video Interleave
Размер файла : 746 Мбайт
Продолжительность : 1 ч. 18 м.
Общий поток : 1328 Кбит/сек
Программа кодирования : VirtualDubModRus 1.5.10.2 (build 2542/release)
Библиотека кодирования : VirtualDubMod build 2542/release
Видео
Идентификатор : 0
Формат : MPEG-4 Visual
Профиль формата : Advanced Simple@L5
Параметр BVOP формата : 1
Параметр QPel формата : Нет
Параметр GMC формата : Без точки перехода
Параметр матрицы формата : Выборочная
Идентификатор кодека : XVID
Идентификатор кодека/Подсказка : XviD
Продолжительность : 1 ч. 18 м.
Битрейт : 1190 Кбит/сек
Ширина : 640 пикселей
Высота : 480 пикселей
Соотношение сторон : 4:3
Частота кадров : 25,000 кадров/сек
Цветовое пространство : YUV
Субдискретизация насыщенности : 4:2:0
Битовая глубина : 8 бит
Тип развёртки : Прогрессивная
Метод сжатия : С потерями
Бит/(Пиксели*Кадры) : 0.155
Размер потока : 668 Мбайт (90%)
Библиотека кодирования : XviD 73
Аудио
Идентификатор : 1
Формат : MPEG Audio
Версия формата : Version 1
Профиль формата : Layer 3
Идентификатор кодека : 55
Идентификатор кодека/Подсказка : MP3
Продолжительность : 1 ч. 18 м.
Вид битрейта : Постоянный
Битрейт : 128 Кбит/сек
Каналы : 2 канала
Частота : 48,0 КГц
Метод сжатия : С потерями
Размер потока : 71,9 Мбайт (10%)
Выравнивание : Соединение по промежуткам
Продолжительность промежутка : 40 мс. (1,00 видеокадр)
Время предзагрузки промежутка : 504 мс.
Библиотека кодирования : LAME3.99r
Настройки программы : -m s -V 4 -q 2 -lowpass 17 -b 128





   Похожие торренты   Торрент   Размер 
В этой теме нет новых непрочитанных сообщений. Зигмунд Колосовский (1946) DVDRip от New-Team

16 | 2

1.09 ГБ

В этой теме нет новых непрочитанных сообщений. Зигмунд Колосовский (1946) DVDRip-AVC от New-Team

51 | 0

1.09 ГБ

В этой теме нет новых непрочитанных сообщений. Зигмунд Колосовский (1946) HDRip | КПК

2 | 13

268.67 МБ

В этой теме нет новых непрочитанных сообщений. Глинка (1946) DVDRip от New-Team

2 | 53

744.36 МБ

В этой теме нет новых непрочитанных сообщений. Синегория (1946) DVDRip от New-Team

18 | 11

1.09 ГБ

В этой теме нет новых непрочитанных сообщений. Сын полка (1946) DVDRip-AVC от New-Team

282 | 7

1.09 ГБ

В этой теме нет новых непрочитанных сообщений. Сын полка (1946) DVDRip от New-Team

45 | 4

743.75 МБ




Вы не можете начинать темы
Вы не можете отвечать на сообщения
Вы не можете редактировать свои сообщения
Вы не можете удалять свои сообщения
Вы не можете добавлять вложения

Перейти:  
Для Мосгорсуда, Роскомнадзора и рекламодателей: mosgorsud-torrent[собачка]yandex.ru
 Вход
ppkBB3cker v.2 © 2008-2014 @ PPK
[ Time : 0.068s | 15 Queries | GZIP : Off ]

Торрент трекер RUTOR.IN, Не можете зайти на rutor.org? Какой новый адрес рутор? Какое зеркало рутор? Не работает rutor.org и зеркала? Тогда наш торрент специально для вас. Rutor.in неофициальное зеркало rutor. В случае если у Вас заблокирован rutor или вдруг Вы не можете на него зайти, то Вы без труда сможете скачать бесплатно и без рекламы последние новинки кино, игр, сериалов и прочего у нас, на Rutor.in. Не нужно использовать прокси, чтобы зайти на рутор, достаточно воспользоваться нашим ресурсом. Все новые фильмы, игры, сериалы, книги и музыка за 2013 и 2014 годы через торрент бесплатно. Скачивайте фильмы в хорошем качестве, игры для пк, xbox, playstation без регистрации. У нас вы найдете новые Зарубежные сериалы и Русские сериалы 2013, 2014, 2015 годов. Оставайтесь с нами, качайте любимые фильмы, игры, сериалы, книги и музыку.