img image001 image001 image001 image001 image001 image001 image001 image001 image001 image001 image001 image001 image001 image001 image001

Planets Sun Sun Sun
Статистика раздачи
Автор: Nickolas3434 | Размер: 1.46 ГБ | Добавлен: 03 июн 2015
Раздают: 23    Качают: 4
Скачать торрент
Скачать торрент
Описание торрента

СообщениеДобавлено: 03 июн 2015 

Страна: СССР
Производство: Тбилисская киностудия
Жанр: драма
Год выпуска: 1946
Продолжительность: 1:48:10
Перевод: Не требуется
Cубтитры: нет
Оригинальная аудиодорожка: русский
Режиссер: Михаил Чиаурели
В ролях:
Михаил Геловани, Софья Гиацинтова, Николай Боголюбов, Дмитрий Павлов, С. Боголюбова, Николай Плотников, Тамара Макарова, Вадим Захарченко, Владимир Соловьев, Сергей Блинников, Гурам Сагарадзе, Асад Исматов, Владимир Балашов, Максим Штраух, Александр Хвыля, Владимир Марута, Эммануил Апхаидзе...
Описание:
Зимой 1924 года большевик Степан Петров с женой Варварой и дочерью Ольгой идут пешком в Москву, чтобы передать Ленину письмо от земляков. В степи путников настигает кулацкая банда. Степан погибает, но Варвара с дочерью продолжают свой путь. С группой других ходоков, они попадают в Горки, где узнают о смерти Ленина. Герои идут на Красную площадь. Сталин поднимается на трибуну и произносит клятву верности заветам Ленина, после чего Варвара Петрова протягивает ему письмо. Когда начнется война Варвара Михайловна пошлет своих детей защищать Родину. После войны под сводами Георгиевского дворца произойдет вторая встреча Петровой и Сталина.
Золотая медаль на МКФ в Венеции (1946 г.), Сталинская премия I степени (1947 г.)





Источник: DVD5 R5
Качество видео: DVDRip
Формат видео: AVI
Видео: 672x496 (4:3), 25 fps, XviD ~ 1729 kbps avg, 0.208 bit/pixel
Аудио: 48 kHz, Dolby Digital AC3 2.0, 192 kbps
Раздача от:
Общее
Полное имя : Klyatva.1946.DVDRip_[New-team]_by_AVP_Studio.avi
Формат : AVI
Формат/Информация : Audio Video Interleave
Размер файла : 1,46 Гбайт
Продолжительность : 1 ч. 48 м.
Общий поток : 1931 Кбит/сек
Программа кодирования : VirtualDubModRus 1.5.10.2 (build 2542/release)
Библиотека кодирования : VirtualDubMod build 2542/release
Видео
Идентификатор : 0
Формат : MPEG-4 Visual
Профиль формата : Advanced Simple@L5
Параметр BVOP формата : 1
Параметр QPel формата : Нет
Параметр GMC формата : Без точки перехода
Параметр матрицы формата : Выборочная
Идентификатор кодека : XVID
Идентификатор кодека/Подсказка : XviD
Продолжительность : 1 ч. 48 м.
Битрейт : 1729 Кбит/сек
Ширина : 672 пикселя
Высота : 496 пикселей
Соотношение сторон : 4:3
Частота кадров : 25,000 кадров/сек
Цветовое пространство : YUV
Субдискретизация насыщенности : 4:2:0
Битовая глубина : 8 бит
Тип развёртки : Прогрессивная
Метод сжатия : С потерями
Бит/(Пиксели*Кадры) : 0.208
Размер потока : 1,31 Гбайт (90%)
Библиотека кодирования : XviD 73
Аудио
Идентификатор : 1
Формат : AC-3
Формат/Информация : Audio Coding 3
Расширение режима : CM (complete main)
Параметр Endianness формата : Big
Идентификатор кодека : 2000
Продолжительность : 1 ч. 48 м.
Вид битрейта : Постоянный
Битрейт : 192 Кбит/сек
Каналы : 2 канала
Расположение каналов : Front: L R
Частота : 48,0 КГц
Битовая глубина : 16 бит
Метод сжатия : С потерями
Размер потока : 149 Мбайт (10%)
Выравнивание : Разделение по промежуткам
Продолжительность промежутка : 40 мс. (1,00 видеокадр)
Время предзагрузки промежутка : 500 мс





   Похожие торренты   Торрент   Размер 
В этой теме нет новых непрочитанных сообщений. Клятва (1946) DVDRip от New-Team

18 | 2

746.48 МБ

В этой теме нет новых непрочитанных сообщений. Клятва (1946) DVDRip-AVC от New-Team

63 | 3

1.46 ГБ

В этой теме нет новых непрочитанных сообщений. Клятва Тимура (1942) DVDRip-AVC от New-Team

34 | 5

744.37 МБ

В этой теме нет новых непрочитанных сообщений. Клятва Тимура (1942) DVDRip-AVC от New-Team

11 | 4

743.83 МБ

В этой теме нет новых непрочитанных сообщений. Клятва Тимура (1942) DVDRip от New-Team

40 | 7

744.11 МБ

В этой теме нет новых непрочитанных сообщений. Клятва Тимура (1942) DVDRip от New-Team

10 | 6

744.38 МБ

В этой теме нет новых непрочитанных сообщений. Сыновья (1946) DVDRip от New-Team

28 | 9

744.81 МБ




Вы не можете начинать темы
Вы не можете отвечать на сообщения
Вы не можете редактировать свои сообщения
Вы не можете удалять свои сообщения
Вы не можете добавлять вложения

Перейти:  
Для Мосгорсуда, Роскомнадзора и рекламодателей: mosgorsud-torrent[собачка]yandex.ru
 Вход
ppkBB3cker v.2 © 2008-2014 @ PPK
[ Time : 0.028s | 15 Queries | GZIP : Off ]

Торрент трекер RUTOR.IN, Не можете зайти на rutor.org? Какой новый адрес рутор? Какое зеркало рутор? Не работает rutor.org и зеркала? Тогда наш торрент специально для вас. Rutor.in неофициальное зеркало rutor. В случае если у Вас заблокирован rutor или вдруг Вы не можете на него зайти, то Вы без труда сможете скачать бесплатно и без рекламы последние новинки кино, игр, сериалов и прочего у нас, на Rutor.in. Не нужно использовать прокси, чтобы зайти на рутор, достаточно воспользоваться нашим ресурсом. Все новые фильмы, игры, сериалы, книги и музыка за 2013 и 2014 годы через торрент бесплатно. Скачивайте фильмы в хорошем качестве, игры для пк, xbox, playstation без регистрации. У нас вы найдете новые Зарубежные сериалы и Русские сериалы 2013, 2014, 2015 годов. Оставайтесь с нами, качайте любимые фильмы, игры, сериалы, книги и музыку.