img image001 image001 image001 image001 image001 image001 image001 image001 image001 image001 image001 image001 image001 image001 image001

Planets Sun Sun Sun
Статистика раздачи
Автор: Nickolas3434 | Размер: 2.66 ГБ | Добавлен: 03 июн 2015
Раздают: 528    Качают: 39
Скачать торрент
Скачать торрент
Описание торрента

СообщениеДобавлено: 03 июн 2015 


Информация о фильме
Название: Свой среди чужих, чужой среди своих
Год выхода: 1974
Жанр: Военный, драма, приключения, экранизация
Режиссер: Никита Михалков
В ролях: Юрий Богатырёв, Анатолий Солоницын, Сергей Шакуров, Александр Пороховщиков, Николай Пастухов, Александр Кайдановский, Никита Михалков, Николай Засухин, Александр Калягин, Константин Райкин, Екатерина Шадрина, Михаил Кислов, Виталий Комиссаров, Александр Яковлев, Анатолий Борисов, Геннадий Крашенинников, Михаил Чигарев, Галина Микеладзе, Александр Адабашьян, Вадим Вильский, Борис Галкин
О фильме:
По повести Эдуарда Володарского и Никиты Михалкова «Красное золото».
Действие этого психологического "вестерна" происходит в 20-е годы в маленьком губернском городке на юге России. Гражданская война кончилась, но до полной победы большевиков еще далеко. Группа бандитов из бывших белых офицеров грабит поезд с золотом, на которое нужно было купить хлеб для голодающих, и пятеро друзей, бывших красных бойцов, вступают с ними в смертельную схватку. Получается так, что подозрение в предательстве падает на одного из них (первая роль Богатырева в полнометражном кино), и, сбежав от товарищей, он один должен вернуть золото, чтобы доказать свою невиновность.
Страна: СССР
Продолжительность: 01:32:02
Перевод: не требуется
Файл
Кодек: MKV
Качество: DVDRip (AVC)
Видео: MPEG-4 AVC, 3500 Кбит/с, 716x574@764x574
Звук: AC3, 6 ch, 448 Кбит/с, AC3, 1 ch, 192 Кбит/с
Субтитры: Русские
raw [info]: 716x574p 16:15 @ 25/1 fps (cfr)
x264 [info]: using SAR=16/15
x264 [info]: using cpu capabilities: MMX2 SSE2Fast SSSE3 SSE4.2 AVX
x264 [info]: profile High, level 4.1
x264 [info]: frame I:784 Avg QP:16.89 size: 83100
x264 [info]: frame P:33576 Avg QP:20.19 size: 34762
x264 [info]: frame B:103579 Avg QP:22.30 size: 11411
---------------------------------------------------------------------------------------------------------------
Общее
Уникальный идентификатор : 235042528003574697565687880514849902044 (0xB0D38B568059144B8D08D5E84EDE8DDC)
Полное имя : J:Свой среди чужих_1974-DVDRip-AVC.mkv
Формат : Matroska
Версия формата : Version 2
Размер файла : 2,66 Гбайт
Продолжительность : 1 ч. 32 м.
Общий поток : 4139 Кбит/сек
Дата кодирования : UTC 2015-03-26 13:29:42
Программа кодирования : mkvmerge v5.8.0 ('No Sleep / Pillow') built on Sep 2 2012 15:37:04
Библиотека кодирования : libebml v1.2.3 + libmatroska v1.3.0
Видео
Идентификатор : 1
Формат : AVC
Формат/Информация : Advanced Video Codec
Профиль формата : High@L4.1
Параметр CABAC формата : Да
Параметр ReFrames формата : 15 кадров
Идентификатор кодека : V_MPEG4/ISO/AVC
Продолжительность : 1 ч. 32 м.
Битрейт : 3500 Кбит/сек
Ширина : 716 пикселей
Высота : 574 пикселя
Соотношение сторон : 4:3
Режим частоты кадров : Постоянный
Частота кадров : 25,000 кадров/сек
Цветовое пространство : YUV
Субдискретизация насыщенности : 4:2:0
Битовая глубина : 8 бит
Тип развёртки : Прогрессивная
Бит/(Пиксели*Кадры) : 0.341
Размер потока : 2,20 Гбайт (83%)
Библиотека кодирования : x264 core 130 r2273 b3065e6
Настройки программы : cabac=1 / ref=15 / deblock=1:-2:-2 / analyse=0x3:0x133 / me=umh / subme=10 / psy=1 / psy_rd=1.05:0.12 / mixed_ref=1 / me_range=32 / chroma_me=1 / trellis=2 / 8x8dct=1 / cqm=0 / deadzone=21,11 / fast_pskip=0 / chroma_qp_offset=-3 / threads=12 / lookahead_threads=2 / sliced_threads=0 / nr=0 / decimate=0 / interlaced=0 / bluray_compat=0 / constrained_intra=0 / bframes=9 / b_pyramid=2 / b_adapt=2 / b_bias=0 / direct=3 / weightb=1 / open_gop=0 / weightp=2 / keyint=250 / keyint_min=25 / scenecut=40 / intra_refresh=0 / rc=2pass / mbtree=0 / bitrate=3500 / ratetol=1.0 / qcomp=0.60 / qpmin=0 / qpmax=39 / qpstep=4 / cplxblur=20.0 / qblur=0.5 / ip_ratio=1.40 / pb_ratio=1.30 / aq=1:1.00
Язык : English
Default : Да
Forced : Нет
Основные цвета : BT.601 PAL
Характеристики трансфера : BT.470 System B, BT.470 System G
Коэффициенты матрицы : BT.601
colour_range : Limited
Аудио #1
Идентификатор : 2
Формат : AC-3
Формат/Информация : Audio Coding 3
Расширение режима : CM (complete main)
Параметр Endianness формата : Big
Идентификатор кодека : A_AC3
Продолжительность : 1 ч. 32 м.
Вид битрейта : Постоянный
Битрейт : 448 Кбит/сек
Каналы : 6 каналов
Расположение каналов : Front: L C R, Side: L R, LFE
Частота : 48,0 КГц
Битовая глубина : 16 бит
Метод сжатия : С потерями
Задержка видео : -41 мс.
Размер потока : 295 Мбайт (11%)
Язык : Russian
Default : Да
Forced : Нет
Аудио #2
Идентификатор : 3
Формат : AC-3
Формат/Информация : Audio Coding 3
Расширение режима : CM (complete main)
Параметр Endianness формата : Big
Идентификатор кодека : A_AC3
Продолжительность : 1 ч. 32 м.
Вид битрейта : Постоянный
Битрейт : 192 Кбит/сек
Каналы : 1 канал
Расположение каналов : Front: C
Частота : 48,0 КГц
Битовая глубина : 16 бит
Метод сжатия : С потерями
Задержка видео : 4 с. 655 мс.
Размер потока : 126 Мбайт (5%)
Язык : Russian
Default : Нет
Forced : Нет
Текст
Идентификатор : 4
Формат : UTF-8
Идентификатор кодека : S_TEXT/UTF8
Идентификатор кодека/Информация : UTF-8 Plain Text
Язык : Russian
Default : Нет
Forced : Нет



На kinozal не перезаливать!



   Похожие торренты   Торрент   Размер 
В этой теме нет новых непрочитанных сообщений. Свой среди чужих, чужой среди своих (1974) DVDRip от MediaClub | КПК

41 | 6

417.97 МБ

В этой теме нет новых непрочитанных сообщений. Свой среди чужих, чужой среди своих (1974) DVDRip by FREEISLAND

81 | 7

2.44 ГБ

В этой теме нет новых непрочитанных сообщений. Свой среди чужих, чужой среди своих (1974) DVDRip-AVC

645 | 34

1.45 ГБ

В этой теме нет новых непрочитанных сообщений. Свой среди чужих, чужой среди своих (1974) DVDRip

102 | 16

1.45 ГБ

В этой теме нет новых непрочитанных сообщений. Свой среди чужих, чужой среди своих (1974) DVDRip

216 | 7

736.74 МБ

В этой теме нет новых непрочитанных сообщений. Свой среди чужих, чужой среди своих (1974) DVD5 by гаврила

48 | 10

3.68 ГБ

В этой теме нет новых непрочитанных сообщений. Свой среди чужих, чужой среди своих (1974) HDDVDRip 720p от ExKinoRay

449 | 46

3.59 ГБ




Вы не можете начинать темы
Вы не можете отвечать на сообщения
Вы не можете редактировать свои сообщения
Вы не можете удалять свои сообщения
Вы не можете добавлять вложения

Перейти:  
Для Мосгорсуда, Роскомнадзора и рекламодателей: mosgorsud-torrent[собачка]yandex.ru
 Вход
ppkBB3cker v.2 © 2008-2014 @ PPK
[ Time : 0.083s | 14 Queries | GZIP : Off ]

Торрент трекер RUTOR.IN, Не можете зайти на rutor.org? Какой новый адрес рутор? Какое зеркало рутор? Не работает rutor.org и зеркала? Тогда наш торрент специально для вас. Rutor.in неофициальное зеркало rutor. В случае если у Вас заблокирован rutor или вдруг Вы не можете на него зайти, то Вы без труда сможете скачать бесплатно и без рекламы последние новинки кино, игр, сериалов и прочего у нас, на Rutor.in. Не нужно использовать прокси, чтобы зайти на рутор, достаточно воспользоваться нашим ресурсом. Все новые фильмы, игры, сериалы, книги и музыка за 2013 и 2014 годы через торрент бесплатно. Скачивайте фильмы в хорошем качестве, игры для пк, xbox, playstation без регистрации. У нас вы найдете новые Зарубежные сериалы и Русские сериалы 2013, 2014, 2015 годов. Оставайтесь с нами, качайте любимые фильмы, игры, сериалы, книги и музыку.