img image001 image001 image001 image001 image001 image001 image001 image001 image001 image001 image001 image001 image001 image001 image001

Planets Sun Sun Sun
Статистика раздачи
Автор: Nickolas3434 | Размер: 1.71 ГБ | Добавлен: 03 июн 2015
Раздают: 384    Качают: 21
Скачать торрент
Скачать торрент
Описание торрента

СообщениеДобавлено: 03 июн 2015 


Информация о фильме
Название: Алые паруса
Год выхода: 1961
Жанр: Фэнтези, мелодрама, экранизация
Режиссер: Александр Птушко
В ролях: Анастасия Вертинская, Василий Лановой, Лена Черемшанова, Саша Лупенко, Иван Переверзев, Сергей Мартинсон, Николай Волков-старший, Сергей Ромоданов, Олег Анофриев, Павел Волков, А. Хвыля, Григорий Шпигель, А. Орочко, А. Кончакова, Павел Массальский, Зоя Фёдорова, Н. Орлова, Эммануил Геллер, Н. Алексеев, И. Мочалов, Евгений Моргунов
О фильме:
В маленькой приморской деревне живёт отставной моряк Лонгрен, который мастерит игрушечные кораблики и еле сводит концы с концами. После того, как он овдовел, на руках у него осталась маленькая дочка Ассоль. Как-то раз некий старик предсказывает Ассоль, что наступит день, когда её увезёт прекрасный принц на корабле с алыми парусами. Над Ассоль смеётся вся деревня, но наступает тот день, когда сказка становится былью…
Страна: CCCР
Продолжительность: 01:22:59
Перевод: не требуется
Файл
Кодек: MKV
Качество: DVDRip (AVC)
Видео: MPEG-4 AVC, 2500 Кбит/с, 716x432@1018x432
Звук: AC3, 6 ch, 448 Кбит/с

Общее
Уникальный идентификатор : 248980117780995655735077622532439804154 (0xBB4FD3918418F6CFA5347F5D472008FA)
Полное имя : R:МОИ РИПЫАлые паруса_1961-DVDRip-AVC.mkv
Формат : Matroska
Версия формата : Version 2
Размер файла : 1,71 Гбайт
Продолжительность : 1 ч. 22 м.
Общий поток : 2950 Кбит/сек
Дата кодирования : UTC 2015-04-16 11:50:49
Программа кодирования : mkvmerge v5.8.0 ('No Sleep / Pillow') built on Sep 2 2012 15:37:04
Библиотека кодирования : libebml v1.2.3 + libmatroska v1.3.0
Видео
Идентификатор : 1
Формат : AVC
Формат/Информация : Advanced Video Codec
Профиль формата : High@L4.1
Параметр CABAC формата : Да
Параметр ReFrames формата : 15 кадров
Идентификатор кодека : V_MPEG4/ISO/AVC
Продолжительность : 1 ч. 22 м.
Битрейт : 2500 Кбит/сек
Ширина : 716 пикселей
Высота : 432 пикселя
Соотношение сторон : 2,35:1
Соотношение сторон в оригинале : 2,35:1
Режим частоты кадров : Постоянный
Частота кадров : 25,000 кадров/сек
Цветовое пространство : YUV
Субдискретизация насыщенности : 4:2:0
Битовая глубина : 8 бит
Тип развёртки : Прогрессивная
Бит/(Пиксели*Кадры) : 0.323
Размер потока : 1,42 Гбайт (83%)
Библиотека кодирования : x264 core 130 r2273 b3065e6
Настройки программы : cabac=1 / ref=15 / deblock=1:-2:-2 / analyse=0x3:0x133 / me=umh / subme=10 / psy=1 / psy_rd=1.05:0.15 / mixed_ref=1 / me_range=32 / chroma_me=1 / trellis=2 / 8x8dct=1 / cqm=0 / deadzone=21,11 / fast_pskip=0 / chroma_qp_offset=-3 / threads=12 / lookahead_threads=3 / sliced_threads=0 / nr=0 / decimate=0 / interlaced=0 / bluray_compat=0 / constrained_intra=0 / bframes=11 / b_pyramid=2 / b_adapt=2 / b_bias=0 / direct=3 / weightb=1 / open_gop=0 / weightp=2 / keyint=250 / keyint_min=25 / scenecut=40 / intra_refresh=0 / rc=2pass / mbtree=0 / bitrate=2500 / ratetol=1.0 / qcomp=0.65 / qpmin=0 / qpmax=39 / qpstep=4 / cplxblur=20.0 / qblur=0.5 / ip_ratio=1.40 / pb_ratio=1.30 / aq=1:1.00
Язык : English
Default : Да
Forced : Нет
Основные цвета : BT.601 PAL
Характеристики трансфера : BT.470 System B, BT.470 System G
Коэффициенты матрицы : BT.601
Аудио
Идентификатор : 2
Формат : AC-3
Формат/Информация : Audio Coding 3
Расширение режима : CM (complete main)
Параметр Endianness формата : Big
Идентификатор кодека : A_AC3
Продолжительность : 1 ч. 22 м.
Вид битрейта : Постоянный
Битрейт : 448 Кбит/сек
Каналы : 6 каналов
Расположение каналов : Front: L C R, Side: L R, LFE
Частота : 48,0 КГц
Битовая глубина : 16 бит
Метод сжатия : С потерями
Размер потока : 266 Мбайт (15%)
Язык : Russian
Default : Да
Forced : Нет

Релиз от:
На кинозал не перезаливать!



   Похожие торренты   Торрент   Размер 
В этой теме нет новых непрочитанных сообщений. Алые паруса (1961) DVDRip

106 | 11

1.46 ГБ

В этой теме нет новых непрочитанных сообщений. Алые паруса (1961) DVDRip | Реставрация

69 | 5

1.37 ГБ

В этой теме нет новых непрочитанных сообщений. Алые паруса (1961) DVDRip | Реставрация

1382 | 50

1.37 ГБ

В этой теме нет новых непрочитанных сообщений. Алые паруса (2013) DVB от Files-x

0 | 1

5.35 ГБ

В этой теме нет новых непрочитанных сообщений. Алые Паруса (2011) IPTVRip

0 | 2

6.48 ГБ

В этой теме нет новых непрочитанных сообщений. Алые паруса (2013) SATRip от Files-x

3 | 2

2.5 ГБ

В этой теме нет новых непрочитанных сообщений. Алые паруса (1961) DVD5 | Реставрация

53 | 3

4.02 ГБ




Вы не можете начинать темы
Вы не можете отвечать на сообщения
Вы не можете редактировать свои сообщения
Вы не можете удалять свои сообщения
Вы не можете добавлять вложения

Перейти:  
Для Мосгорсуда, Роскомнадзора и рекламодателей: mosgorsud-torrent[собачка]yandex.ru
 Вход
ppkBB3cker v.2 © 2008-2014 @ PPK
[ Time : 0.826s | 14 Queries | GZIP : Off ]
CGP output time : 0.028s | 5 Queries | GZIP : Off

Торрент трекер RUTOR.IN, Не можете зайти на rutor.org? Какой новый адрес рутор? Какое зеркало рутор? Не работает rutor.org и зеркала? Тогда наш торрент специально для вас. Rutor.in неофициальное зеркало rutor. В случае если у Вас заблокирован rutor или вдруг Вы не можете на него зайти, то Вы без труда сможете скачать бесплатно и без рекламы последние новинки кино, игр, сериалов и прочего у нас, на Rutor.in. Не нужно использовать прокси, чтобы зайти на рутор, достаточно воспользоваться нашим ресурсом. Все новые фильмы, игры, сериалы, книги и музыка за 2013 и 2014 годы через торрент бесплатно. Скачивайте фильмы в хорошем качестве, игры для пк, xbox, playstation без регистрации. У нас вы найдете новые Зарубежные сериалы и Русские сериалы 2013, 2014, 2015 годов. Оставайтесь с нами, качайте любимые фильмы, игры, сериалы, книги и музыку.