img image001 image001 image001 image001 image001 image001 image001 image001 image001 image001 image001 image001 image001 image001 image001

Planets Sun Sun Sun
Статистика раздачи
Автор: Nickolas3434 | Размер: 1.98 ГБ | Добавлен: 03 июн 2015
Раздают: 76    Качают: 12
Скачать торрент
Скачать торрент
Описание торрента

СообщениеДобавлено: 03 июн 2015 


Информация о фильме
Название: Челюскинцы
Год выхода: 1984
Жанр: Героико-приключенческий
Режиссер: Михаил Ершов
В ролях: Александр Лазарев (старший), Пётр Вельяминов, Игорь Комаров, Евгений Гвоздёв, Олег Белонучкин, Валерий Кравченко, Евгений Леонов-Гладышев, Семен Морозов, Юрий Лазарев, Георгий Тейх, Александр Алексеев (V), Геннадий Черняев, Валерий Доронин, Валерий Комиссаров, Владимир Осипчук, Леонид Жеребцов, Петр Дроцкий, Виктор Павлов, Анастасия Глез-Петропавловская, Елена Антонова (II), Сергей Данилин, Анатолий Печников, Валерий Козинец, Г. Багдасаров, Олег Корчиков, Владимир Приходько, Юрий Соловьёв, Елена Павловская, Рудольф Челищев, Л. Зуева, Николай Федорцов, Герман Орлов, Герман Колушкин, Василий Корзун, Николай Карпиленко, Станислав Фесюнов, Александр Липов, Татьяна Иванова, Людмила Молокова, А. Фокин, А. Шервуд, Виталий Щенников, Алексей Кожевников, А. Пашкевич, Виталий Матвеев, Константин Гершов
О фильме:
В феврале 1934 года в Чукотском море раздавлен льдами и затонул пароход "Челюскин". Экипаж судна и участники научной экспедиции высадились на дрейфующую льдину, на которой они продержались два месяца. Как жили люди на льдине?

Страна: СССР
Продолжительность: 2 x ~ 01:02:10
Перевод: не требуется
Файл
Кодек: MKV
Качество: SATRip-AVC
Видео: MPEG-4 AVC, 2100 Кбит/с, 662x540@706x540, 650x532@694x532
Звук: AC3, 2 ch, 192 Кбит/с

Общее
Уникальный идентификатор : 233448821150328835175312535355766673444 (0xAFA09B8601BF3569AE18D5EA15751024)
Полное имя : R:МОИ РИПЫЧелюскинцы_1984-SATRip-AVCЧелюскинцы-1.mkv
Формат : Matroska
Версия формата : Version 2
Размер файла : 1,03 Гбайт
Продолжительность : 1 ч. 4 м.
Общий поток : 2294 Кбит/сек
Дата кодирования : UTC 2015-04-10 00:46:47
Программа кодирования : mkvmerge v5.8.0 ('No Sleep / Pillow') built on Sep 2 2012 15:37:04
Библиотека кодирования : libebml v1.2.3 + libmatroska v1.3.0
Видео
Идентификатор : 1
Формат : AVC
Формат/Информация : Advanced Video Codec
Профиль формата : High@L4.1
Параметр CABAC формата : Да
Параметр ReFrames формата : 15 кадров
Идентификатор кодека : V_MPEG4/ISO/AVC
Продолжительность : 1 ч. 4 м.
Битрейт : 2100 Кбит/сек
Ширина : 662 пикселя
Высота : 540 пикселей
Соотношение сторон : 4:3
Соотношение сторон в оригинале : 4:3
Режим частоты кадров : Постоянный
Частота кадров : 25,000 кадров/сек
Цветовое пространство : YUV
Субдискретизация насыщенности : 4:2:0
Битовая глубина : 8 бит
Тип развёртки : Прогрессивная
Бит/(Пиксели*Кадры) : 0.235
Размер потока : 944 Мбайт (90%)
Библиотека кодирования : x264 core 130 r2273 b3065e6
Настройки программы : cabac=1 / ref=15 / deblock=1:-2:-2 / analyse=0x3:0x133 / me=umh / subme=10 / psy=1 / psy_rd=1.05:0.10 / mixed_ref=1 / me_range=32 / chroma_me=1 / trellis=2 / 8x8dct=1 / cqm=0 / deadzone=21,11 / fast_pskip=0 / chroma_qp_offset=-3 / threads=12 / lookahead_threads=2 / sliced_threads=0 / nr=0 / decimate=0 / interlaced=0 / bluray_compat=0 / constrained_intra=0 / bframes=9 / b_pyramid=2 / b_adapt=2 / b_bias=0 / direct=3 / weightb=1 / open_gop=0 / weightp=2 / keyint=250 / keyint_min=25 / scenecut=40 / intra_refresh=0 / rc=2pass / mbtree=0 / bitrate=2100 / ratetol=1.0 / qcomp=0.65 / qpmin=0 / qpmax=39 / qpstep=4 / cplxblur=20.0 / qblur=0.5 / ip_ratio=1.40 / pb_ratio=1.30 / aq=1:1.00
Язык : English
Default : Да
Forced : Нет
Основные цвета : BT.601 PAL
Характеристики трансфера : BT.470 System B, BT.470 System G
Коэффициенты матрицы : BT.601
Аудио
Идентификатор : 2
Формат : AC-3
Формат/Информация : Audio Coding 3
Расширение режима : CM (complete main)
Параметр Endianness формата : Big
Идентификатор кодека : A_AC3
Продолжительность : 1 ч. 4 м.
Вид битрейта : Постоянный
Битрейт : 192 Кбит/сек
Каналы : 2 канала
Расположение каналов : Front: L R
Частота : 48,0 КГц
Битовая глубина : 16 бит
Метод сжатия : С потерями
Задержка видео : 10 мс.
Размер потока : 88,2 Мбайт (8%)
Язык : Russian
Default : Да
Forced : Нет

Релиз от:
На кинозал не перезаливать!



   Похожие торренты   Торрент   Размер 
В этой теме нет новых непрочитанных сообщений. 1984 / Тысяча девятьсот восемьдесят четвёртый) / 1984 / Nineteen Eighty-Four (1984) WEB-DLRip | P2

243 | 21

1.46 ГБ

В этой теме нет новых непрочитанных сообщений. Расставания (1984) SATRip

10 | 4

1.54 ГБ

В этой теме нет новых непрочитанных сообщений. Отряд (1984) SATRip

11 | 3

700 МБ

В этой теме нет новых непрочитанных сообщений. 1984 / Тысяча девятьсот восемьдесят четвертый / Nineteen Eighty-Four (1984) WEB-DL 720p

445 | 49

3.54 ГБ

В этой теме нет новых непрочитанных сообщений. Смотрины (1984) SATRip от AND03AND

137 | 7

419.66 МБ

В этой теме нет новых непрочитанных сообщений. Отряд (1984) SATRip от New-Team

147 | 285

745.25 МБ

В этой теме нет новых непрочитанных сообщений. Юрка - сын командира (1984) SATRip

12 | 8

745.62 МБ




Вы не можете начинать темы
Вы не можете отвечать на сообщения
Вы не можете редактировать свои сообщения
Вы не можете удалять свои сообщения
Вы не можете добавлять вложения

Перейти:  
Для Мосгорсуда, Роскомнадзора и рекламодателей: mosgorsud-torrent[собачка]yandex.ru
 Вход
ppkBB3cker v.2 © 2008-2014 @ PPK
[ Time : 0.183s | 14 Queries | GZIP : Off ]

Торрент трекер RUTOR.IN, Не можете зайти на rutor.org? Какой новый адрес рутор? Какое зеркало рутор? Не работает rutor.org и зеркала? Тогда наш торрент специально для вас. Rutor.in неофициальное зеркало rutor. В случае если у Вас заблокирован rutor или вдруг Вы не можете на него зайти, то Вы без труда сможете скачать бесплатно и без рекламы последние новинки кино, игр, сериалов и прочего у нас, на Rutor.in. Не нужно использовать прокси, чтобы зайти на рутор, достаточно воспользоваться нашим ресурсом. Все новые фильмы, игры, сериалы, книги и музыка за 2013 и 2014 годы через торрент бесплатно. Скачивайте фильмы в хорошем качестве, игры для пк, xbox, playstation без регистрации. У нас вы найдете новые Зарубежные сериалы и Русские сериалы 2013, 2014, 2015 годов. Оставайтесь с нами, качайте любимые фильмы, игры, сериалы, книги и музыку.