img image001 image001 image001 image001 image001 image001 image001 image001 image001 image001 image001 image001 image001 image001 image001

Planets Sun Sun Sun
Статистика раздачи
Автор: Nickolas3434 | Размер: 745.58 МБ | Добавлен: 02 июн 2015, 19:48
Раздают: 1091    Качают: 48
Скачать торрент
Скачать торрент
Описание торрента

СообщениеДобавлено: 02 июн 2015, 19:48 


Информация о фильме
Название: По секрету всему свету
Год выхода: 2015
Жанр: Мелодрама
Режиссер: Роман Просвирнин
В ролях: Глафира Тарханова, Руслан Ягудин, Иван Жидков, Андрей Лейвин, Юрий Лейвин, Анастасия Попова, Виктор Рябов, Галина Стаханова, Мария Сокова, Анна Асташкина, Роман Евдокимов
О фильме:
Нюта — молодая женщина, живущая в деревне вместе с мужем и двумя маленькими сыновьями. Как настоящая русская женщина, Нюта тянет на своих плечах всю семьи, и взрослого братца, который не хочет самостоятельно жить. Однажды магазин, где работала Нюта, грабят. Весь ущерб хозяева записывают на продавщицу. Нюта в отчаянии — сумма долга слишком большая для нее. Но ни муж, ни брат не собираются помогать несчастной женщине. Единственный, кто встает на сторону Нюты — молодой участковый Авдеев.

Страна: Россия
Студия: Кинокомпания "Русское", "Студия Олимп"
Продолжительность: 01:31:09
Перевод: Не требуется
Файл
Кодек: XviD
Качество: HDTVRip
Видео: 624x352 (1.77:1), 25 fps, XviD build 73 ~1006 kbps avg, 0.18 bit/pixel
Звук: 48 kHz, MPEG Layer 3, 2 ch, ~128.00 kbps avg
Субтитры: Отсутствует
Семпл
Общее
Полное имя : D:Изготовление рипаPo.sekretu.vsemu.svetu.2015.HDTVRip.от Шкипер.avi
Формат : AVI
Формат/Информация : Audio Video Interleave
Размер файла : 746 Мбайт
Продолжительность : 1 ч. 31 м.
Общий поток : 1143 Кбит/сек
Программа кодирования : VirtualDubMod 1.5.10.3 | www.virtualdub-fr.org || (build 2550/release)
Библиотека кодирования : VirtualDubMod build 2550/release
Видео
Идентификатор : 0
Формат : MPEG-4 Visual
Профиль формата : Advanced Simple@L5
Параметр BVOP формата : 1
Параметр QPel формата : Нет
Параметр GMC формата : Без точки перехода
Параметр матрицы формата : Default (MPEG)
Идентификатор кодека : XVID
Идентификатор кодека/Подсказка : XviD
Продолжительность : 1 ч. 31 м.
Битрейт : 1006 Кбит/сек
Ширина : 624 пикселя
Высота : 352 пикселя
Соотношение сторон : 16:9
Частота кадров : 25,000 кадров/сек
Цветовое пространство : YUV
Субдискретизация насыщенности : 4:2:0
Битовая глубина : 8 бит
Тип развёртки : Прогрессивная
Метод сжатия : С потерями
Бит/(Пиксели*Кадры) : 0.183
Размер потока : 656 Мбайт (88%)
Библиотека кодирования : XviD 73
Аудио
Идентификатор : 1
Формат : MPEG Audio
Версия формата : Version 1
Профиль формата : Layer 3
Режим : Joint stereo
Расширение режима : MS Stereo
Идентификатор кодека : 55
Идентификатор кодека/Подсказка : MP3
Продолжительность : 1 ч. 31 м.
Вид битрейта : Постоянный
Битрейт : 128 Кбит/сек
Каналы : 2 канала
Частота : 48,0 КГц
Метод сжатия : С потерями
Размер потока : 83,5 Мбайт (11%)
Выравнивание : Соединение по промежуткам
Продолжительность промежутка : 40 мс. (1,00 видеокадр)
Время предзагрузки промежутка : 504 мс.
Библиотека кодирования : LAME3.99r
Настройки программы : -m j -V 4 -q 2 -lowpass 17 -b 128

Релиз от:
Автор Рипа:



   Похожие торренты   Торрент   Размер 
В этой теме нет новых непрочитанных сообщений. По секрету всему свету (2015) HDTVRip от Files-x

2595 | 141

1.37 ГБ

В этой теме нет новых непрочитанных сообщений. По секрету всему свету (2015) HDTVRip 720p от MediaClub

367 | 45

2.43 ГБ

В этой теме нет новых непрочитанных сообщений. По секрету всему свету (2015) WEB-DLRip от Interhit

639 | 48

1.37 ГБ

В этой теме нет новых непрочитанных сообщений. По секрету всему свету (2015) HDTV 1080i от MediaClub

116 | 12

5.5 ГБ

В этой теме нет новых непрочитанных сообщений. По секрету всему свету (1976) DVDRip

57 | 15

1.37 ГБ

В этой теме нет новых непрочитанных сообщений. По секрету всему свету (1976) SATRip

45 | 5

1.45 ГБ

В этой теме нет новых непрочитанных сообщений. По секрету всему свету (1976) DVDRip | КПК

149 | 8

943.32 МБ




Вы не можете начинать темы
Вы не можете отвечать на сообщения
Вы не можете редактировать свои сообщения
Вы не можете удалять свои сообщения
Вы не можете добавлять вложения

Перейти:  
Для Мосгорсуда, Роскомнадзора и рекламодателей: mosgorsud-torrent[собачка]yandex.ru
Настройки
ppkBB3cker v.2 © 2008-2014 @ PPK
[ Time : 0.011s | 15 Queries | GZIP : Off ]
CGP [Extreme] output time : 0.00020s | 0 Queries | GZIP : Off

Торрент трекер RUTOR.IN, Не можете зайти на rutor.org? Какой новый адрес рутор? Какое зеркало рутор? Не работает rutor.org и зеркала? Тогда наш торрент специально для вас. Rutor.in неофициальное зеркало rutor. В случае если у Вас заблокирован rutor или вдруг Вы не можете на него зайти, то Вы без труда сможете скачать бесплатно и без рекламы последние новинки кино, игр, сериалов и прочего у нас, на Rutor.in. Не нужно использовать прокси, чтобы зайти на рутор, достаточно воспользоваться нашим ресурсом. Все новые фильмы, игры, сериалы, книги и музыка за 2013 и 2014 годы через торрент бесплатно. Скачивайте фильмы в хорошем качестве, игры для пк, xbox, playstation без регистрации. У нас вы найдете новые Зарубежные сериалы и Русские сериалы 2013, 2014, 2015 годов. Оставайтесь с нами, качайте любимые фильмы, игры, сериалы, книги и музыку.