img image001 image001 image001 image001 image001 image001 image001 image001 image001 image001 image001 image001 image001 image001 image001

Planets Sun Sun Sun
Статистика раздачи
Автор: Nickolas3434 | Размер: 6.21 ГБ | Добавлен: 03 июн 2015
Раздают: 234    Качают: 55
Скачать торрент
Скачать торрент
Описание торрента

СообщениеДобавлено: 03 июн 2015 


Информация о фильме
Название: Противостояние
Год выхода: 1985
Жанр: Детектив
Режиссер: Семён Аранович
В ролях: Олег Басилашвили, Андрей Болтнев, Наталья Сайко, Юрий Кузнецов, Мурман Джинория, Виктор Гоголев, В. Парменов, Э. Дружинина, Александр Казаков, Ольга Семенова (II), Александр Филиппенко, Вера Быкова-Пижель, Ольга Самошина, Олег Пальмов, Валерий Филонов, Аля Никулина, Елизавета Никищихина, Талгат Нигматулин, Галина Макарова, Котэ (Константин) Махарадзе, Юрий Ступаков, Сергей Бехтерев, Эльвира Колотухина, Владимир Головин, Витаутас Паукште, Станислав Садальский, Николай Ферапонтов, Тамара Шемпель, Арцрум Манукян, Мария Берггольц, Наталья Лабурцева, В. Старостин, Татьяна Шаркова
О фильме:
Сюжет протекает в двух временных линиях в 1980-е годы и в 1940-е в СССР. Совершено несколько тяжких преступлений и расследование выявляет почерк преступника, которого удалось идентифицировать, как бывшего приспешника фашистов, который в 1941 году из рядов Советской Армии перешёл на сторону врага. Предатель Николай Кротов и в 1980-е годы по прежнему опасен и неуловим, благодаря специальной подготовке, которую он прошёл в Германии с целью проведения диверсионной деятельности против СССР. Живя под чужой фамилией и опасаясь, что правоохранительные органы выйдут на его след, Кротов безжалостно убирает свидетелей одного за другим.Чтобы найти его след полковнику Костенко приходится обратиться к архивам времён Великой Отечественной войны…
Страна: СССР
Продолжительность: 5 серий (01:03:40 / 00:55:44 + 00:58:36 / 01:05:48 / 01:03:10 / 01:04:12)
Перевод: не требуется
Файл
Кодек: MKV
Качество: SATRip-AVC
Видео: MPEG-4 AVC, 2200 Кбит/с, 720x572@768x572, 712x572@760x572
Звук: MP2, 2 ch, 192 Кбит/с
Субтитры: Языки и типы субтитров

raw [info]: 720x572p 16:15 @ 25/1 fps (cfr)
x264 [info]: using SAR=16/15
x264 [info]: using cpu capabilities: MMX2 SSE2Fast SSSE3 SSE4.2 AVX
x264 [info]: profile High, level 4.1
x264 [info]: frame I:459 Avg QP:15.44 size: 61323
x264 [info]: frame P:20118 Avg QP:18.73 size: 23923
x264 [info]: frame B:74911 Avg QP:20.53 size: 7221
---------------------------------------------------------------------------------------------------------------
Общее
Уникальный идентификатор : 249973780552954925558342682912470048363 (0xBC0F32ECEFB55F53A03E660292779E6B)
Полное имя : J:МОИ РИПЫProtivostojanie_1985-SATRip-AVCПротивостояние-1.mkv
Формат : Matroska
Версия формата : Version 2
Размер файла : 1,06 Гбайт
Продолжительность : 1 ч. 3 м.
Общий поток : 2394 Кбит/сек
Дата кодирования : UTC 2015-03-30 09:12:07
Программа кодирования : mkvmerge v5.8.0 ('No Sleep / Pillow') built on Sep 2 2012 15:37:04
Библиотека кодирования : libebml v1.2.3 + libmatroska v1.3.0
Видео
Идентификатор : 1
Формат : AVC
Формат/Информация : Advanced Video Codec
Профиль формата : High@L4.1
Параметр CABAC формата : Да
Параметр ReFrames формата : 15 кадров
Идентификатор кодека : V_MPEG4/ISO/AVC
Продолжительность : 1 ч. 3 м.
Битрейт : 2200 Кбит/сек
Ширина : 720 пикселей
Высота : 572 пикселя
Соотношение сторон : 4:3
Режим частоты кадров : Постоянный
Частота кадров : 25,000 кадров/сек
Цветовое пространство : YUV
Субдискретизация насыщенности : 4:2:0
Битовая глубина : 8 бит
Тип развёртки : Прогрессивная
Бит/(Пиксели*Кадры) : 0.214
Размер потока : 981 Мбайт (90%)
Библиотека кодирования : x264 core 130 r2273 b3065e6
Настройки программы : cabac=1 / ref=15 / deblock=1:-2:-2 / analyse=0x3:0x133 / me=umh / subme=10 / psy=1 / psy_rd=1.05:0.10 / mixed_ref=1 / me_range=32 / chroma_me=1 / trellis=2 / 8x8dct=1 / cqm=0 / deadzone=21,11 / fast_pskip=0 / chroma_qp_offset=-3 / threads=12 / lookahead_threads=3 / sliced_threads=0 / nr=0 / decimate=0 / interlaced=0 / bluray_compat=0 / constrained_intra=0 / bframes=10 / b_pyramid=2 / b_adapt=2 / b_bias=0 / direct=3 / weightb=1 / open_gop=0 / weightp=2 / keyint=250 / keyint_min=25 / scenecut=40 / intra_refresh=0 / rc=2pass / mbtree=0 / bitrate=2200 / ratetol=1.0 / qcomp=0.60 / qpmin=0 / qpmax=39 / qpstep=4 / cplxblur=20.0 / qblur=0.5 / ip_ratio=1.40 / pb_ratio=1.30 / aq=1:1.00
Язык : English
Default : Да
Forced : Нет
Основные цвета : BT.601 PAL
Характеристики трансфера : BT.470 System B, BT.470 System G
Коэффициенты матрицы : BT.601
colour_range : Limited
Аудио
Идентификатор : 2
Формат : MPEG Audio
Версия формата : Version 1
Профиль формата : Layer 2
Идентификатор кодека : A_MPEG/L2
Идентификатор кодека/Подсказка : MP2
Продолжительность : 1 ч. 3 м.
Вид битрейта : Постоянный
Битрейт : 192 Кбит/сек
Каналы : 2 канала
Частота : 48,0 КГц
Метод сжатия : С потерями
Задержка видео : 7 мс.
Размер потока : 87,4 Мбайт (8%)
Язык : Russian
Default : Да
Forced : Нет

Релиз от:
Спасибо за исходник - MIFAL
Автор релиза:
На кинозал не перезаливать!



   Похожие торренты   Торрент   Размер 
В этой теме нет новых непрочитанных сообщений. Противостояние (1985) DVD5

26 | 11

13.06 ГБ

В этой теме нет новых непрочитанных сообщений. Противостояние (1985) DVDRip

1165 | 91

4.1 ГБ

В этой теме нет новых непрочитанных сообщений. Противостояние (1985) DVDRip-AVC

207 | 21

4.41 ГБ

В этой теме нет новых непрочитанных сообщений. Противостояние (1985) DVD9

9 | 5

21.05 ГБ

В этой теме нет новых непрочитанных сообщений. Искренне ваш... (1985) SATRip-AVC от ExKinoRay

212 | 16

1.21 ГБ

В этой теме нет новых непрочитанных сообщений. Противостояние. Европа 2015 + Противостояние. 3D. Перезагрузка (2008-2010) PC | RePack

578 | 16

1.03 ГБ

В этой теме нет новых непрочитанных сообщений. Цыган [4 из 4] + Возвращение Будулая [5 из 5] (1979, 1985) SATRip-AVC от ExKinoRay

106 | 33

12.71 ГБ




Вы не можете начинать темы
Вы не можете отвечать на сообщения
Вы не можете редактировать свои сообщения
Вы не можете удалять свои сообщения
Вы не можете добавлять вложения

Перейти:  
Для Мосгорсуда, Роскомнадзора и рекламодателей: mosgorsud-torrent[собачка]yandex.ru
 Вход
ppkBB3cker v.2 © 2008-2014 @ PPK
[ Time : 0.067s | 14 Queries | GZIP : Off ]

Торрент трекер RUTOR.IN, Не можете зайти на rutor.org? Какой новый адрес рутор? Какое зеркало рутор? Не работает rutor.org и зеркала? Тогда наш торрент специально для вас. Rutor.in неофициальное зеркало rutor. В случае если у Вас заблокирован rutor или вдруг Вы не можете на него зайти, то Вы без труда сможете скачать бесплатно и без рекламы последние новинки кино, игр, сериалов и прочего у нас, на Rutor.in. Не нужно использовать прокси, чтобы зайти на рутор, достаточно воспользоваться нашим ресурсом. Все новые фильмы, игры, сериалы, книги и музыка за 2013 и 2014 годы через торрент бесплатно. Скачивайте фильмы в хорошем качестве, игры для пк, xbox, playstation без регистрации. У нас вы найдете новые Зарубежные сериалы и Русские сериалы 2013, 2014, 2015 годов. Оставайтесь с нами, качайте любимые фильмы, игры, сериалы, книги и музыку.