img image001 image001 image001 image001 image001 image001 image001 image001 image001 image001 image001 image001 image001 image001 image001

Planets Sun Sun Sun
Статистика раздачи
Автор: Nickolas3434 | Размер: 3.03 ГБ | Добавлен: 05 июн 2015
Раздают: 139    Качают: 13
Скачать торрент
Скачать торрент
Описание торрента

СообщениеДобавлено: 05 июн 2015 


Информация о фильме
Название: Гений
Год выхода: 1991
Жанр: Комедия, криминал
Режиссер: Виктор Сергеев
В ролях: Александр Абдулов, Лариса Белогурова, Юрий Кузнецов, Иннокентий Смоктуновский, Сергей Проханов, Валентина Талызина, Анатолий Кузнецов, Альгис Матуленис, Виктор Костецкий, Михаил Морозов, Аркадий Коваль, Виктор Ильичев, Борис Клюев, Георгий Мартиросян, Лев Вигдоров, Владимир Баранов, Виктор Смирнов, Закир Мамедов, Артур Арутюнян, Ромуальд Макаренко, Мария Смоктуновская, Виктор Сергеев, Леонид Ярмольник, Андрей Макаревич, Иосиф Кобзон, Александр Збруев, Николай Караченцов, Валерий Леонтьев, Олег Газманов, Александр Градский, Михаил Задорнов, Даниил Сергеев, Алина Михайлова, Лев Лемке, Тамара Шемпель, Гелена Ивлиева, Габриэль Воробьев, Людмила Приходько, Анастасия Мельникова
Страна: Россия
Студия: Ленфильм, киностудия "Ладога"
Продолжительность: 2 х ~ 01:15:48
Язык: Русский


О фильме:
Герой фильма, в прошлом талантливый физик — электронщик, а ныне директор овощного магазина, имеет криминальное хобби. Его изобретательные и технические великолепные операции задевают интересы не только правоохранительных органов, но и кровожадных мафиозных структур…


Файл:
Формат: MKV
Качество: DVDRip (AVC)
Видео: 712x572@759x572, 25 fps, 2400 kbps avg
Звук: 48 kHz, AC3 Dolby Digital, 3/2 (L,C,R,l,r) + LFE ch, 448 kbps avg

raw [info]: 712x572p 16:15 @ 25/1 fps (cfr)
x264 [info]: using SAR=16/15
x264 [info]: using cpu capabilities: MMX2 SSE2Fast SSSE3 SSE4.2 AVX
x264 [info]: profile High, level 4.1
x264 [info]: frame I:42 Avg QP:15.67 size: 74458
x264 [info]: frame P:554 Avg QP:18.99 size: 25697
x264 [info]: frame B:1922 Avg QP:21.39 size: 6310
Общее
Уникальный идентификатор : 220343278431630766379860168812469976990 (0xA5C4926153BAAB1EAB10A0DF83F07F9E)
Полное имя : R:МОИ РИПЫГений_1991-DVDRip-AVCГений-1.mkv
Формат : Matroska
Версия формата : Version 2
Размер файла : 1,41 Гбайт
Продолжительность : 1 ч. 8 м.
Общий поток : 2950 Кбит/сек
Дата кодирования : UTC 2015-06-03 00:38:42
Программа кодирования : mkvmerge v5.8.0 ('No Sleep / Pillow') built on Sep 2 2012 15:37:04
Библиотека кодирования : libebml v1.2.3 + libmatroska v1.3.0
Видео
Идентификатор : 1
Формат : AVC
Формат/Информация : Advanced Video Codec
Профиль формата : High@L4.1
Параметр CABAC формата : Да
Параметр ReFrames формата : 14 кадров
Идентификатор кодека : V_MPEG4/ISO/AVC
Продолжительность : 1 ч. 8 м.
Битрейт : 2500 Кбит/сек
Ширина : 712 пикселей
Высота : 572 пикселя
Соотношение сторон : 4:3
Соотношение сторон в оригинале : 4:3
Режим частоты кадров : Постоянный
Частота кадров : 25,000 кадров/сек
Цветовое пространство : YUV
Субдискретизация насыщенности : 4:2:0
Битовая глубина : 8 бит
Тип развёртки : Прогрессивная
Бит/(Пиксели*Кадры) : 0.246
Размер потока : 1,17 Гбайт (83%)
Библиотека кодирования : x264 core 146 r2538 121396c
Настройки программы : cabac=1 / ref=14 / deblock=1:-2:-2 / analyse=0x3:0x133 / me=umh / subme=10 / psy=1 / psy_rd=1.07:0.13 / mixed_ref=1 / me_range=32 / chroma_me=1 / trellis=2 / 8x8dct=1 / cqm=0 / deadzone=21,11 / fast_pskip=0 / chroma_qp_offset=-3 / threads=12 / lookahead_threads=2 / sliced_threads=0 / nr=0 / decimate=0 / interlaced=0 / bluray_compat=0 / constrained_intra=0 / bframes=9 / b_pyramid=2 / b_adapt=2 / b_bias=0 / direct=3 / weightb=1 / open_gop=0 / weightp=2 / keyint=250 / keyint_min=25 / scenecut=40 / intra_refresh=0 / rc=2pass / mbtree=0 / bitrate=2500 / ratetol=1.0 / qcomp=0.65 / qpmin=0 / qpmax=39 / qpstep=4 / cplxblur=20.0 / qblur=0.5 / ip_ratio=1.40 / pb_ratio=1.30 / aq=1:1.00
Язык : English
Default : Да
Forced : Нет
Основные цвета : BT.601 PAL
Характеристики трансфера : BT.470 System B, BT.470 System G
Коэффициенты матрицы : BT.601
Аудио
Идентификатор : 2
Формат : AC-3
Формат/Информация : Audio Coding 3
Расширение режима : CM (complete main)
Параметр Endianness формата : Big
Идентификатор кодека : A_AC3
Продолжительность : 1 ч. 8 м.
Вид битрейта : Постоянный
Битрейт : 448 Кбит/сек
Каналы : 6 каналов
Расположение каналов : Front: L C R, Side: L R, LFE
Частота : 48,0 КГц
Битовая глубина : 16 бит
Метод сжатия : С потерями
Размер потока : 219 Мбайт (15%)
Язык : Russian
Default : Да
Forced : Нет


Релиз от:
Автор релиза:
На кинозал не перезаливать!



   Похожие торренты   Торрент   Размер 
В этой теме нет новых непрочитанных сообщений. Гений (1991) DVDRip

56 | 7

1.46 ГБ

В этой теме нет новых непрочитанных сообщений. Гений (1991) DVDRip от ENGINEER

197 | 16

2.91 ГБ

В этой теме нет новых непрочитанных сообщений. Гений (1991) DVDRip-AVC от fandora

57 | 6

3.06 ГБ

В этой теме нет новых непрочитанных сообщений. Гений [01-02 из 02] (1991) DVDRip от MediaClub | КПК

82 | 8

684.72 МБ

В этой теме нет новых непрочитанных сообщений. Гений (1991) DVDRip | Реставрация

25 | 6

2.32 ГБ

В этой теме нет новых непрочитанных сообщений. Гений (1991) DVDRip | Полная реставрация

186 | 35

1.46 ГБ

В этой теме нет новых непрочитанных сообщений. А как же Боб? / What About Bob? (1991) DVDRip от ExKinoRay

17 | 9

1.63 ГБ




Вы не можете начинать темы
Вы не можете отвечать на сообщения
Вы не можете редактировать свои сообщения
Вы не можете удалять свои сообщения
Вы не можете добавлять вложения

Перейти:  
Для Мосгорсуда, Роскомнадзора и рекламодателей: mosgorsud-torrent[собачка]yandex.ru
 Вход
ppkBB3cker v.2 © 2008-2014 @ PPK
[ Time : 0.030s | 14 Queries | GZIP : Off ]

Торрент трекер RUTOR.IN, Не можете зайти на rutor.org? Какой новый адрес рутор? Какое зеркало рутор? Не работает rutor.org и зеркала? Тогда наш торрент специально для вас. Rutor.in неофициальное зеркало rutor. В случае если у Вас заблокирован rutor или вдруг Вы не можете на него зайти, то Вы без труда сможете скачать бесплатно и без рекламы последние новинки кино, игр, сериалов и прочего у нас, на Rutor.in. Не нужно использовать прокси, чтобы зайти на рутор, достаточно воспользоваться нашим ресурсом. Все новые фильмы, игры, сериалы, книги и музыка за 2013 и 2014 годы через торрент бесплатно. Скачивайте фильмы в хорошем качестве, игры для пк, xbox, playstation без регистрации. У нас вы найдете новые Зарубежные сериалы и Русские сериалы 2013, 2014, 2015 годов. Оставайтесь с нами, качайте любимые фильмы, игры, сериалы, книги и музыку.