img image001 image001 image001 image001 image001 image001 image001 image001 image001 image001 image001 image001 image001 image001 image001

Planets Sun Sun Sun
Статистика раздачи
Автор: Nickolas3434 | Размер: 2.75 ГБ | Добавлен: 04 июн 2015
Раздают: 33    Качают: 3
Скачать торрент
Скачать торрент
Описание торрента

СообщениеДобавлено: 04 июн 2015 


Информация о фильме
Название: Странные мужчины Семеновой Екатерины
Год выхода: 1992
Жанр: Криминальная мелодрама
Режиссер: Виктор Сергеев
В ролях: Наталия Фиссон, Александр Абдулов, Андрей Соколов, Юрий Кузнецов, Николай Лавров, Александр Хочинский, Лев Вигдоров, Борис Соколов, Александр Сластин, Виктор Костецкий, Светлана Коваленко, Юлия Яковлева, Ольга Волкова, Валерий Кравченко, Евгений Александров, Владимир Баранов, Павел Кашлаков, Сергей Снежкин, Любовь Тищенко, Юрий Эллер, Елена Малиновская, Сергей Пижель, Юлиан Макаров (Журин).
О фильме:
Легкомысленная молодая актриса Катя Семёнова живет в петербургской коммуналке в ожидании больших ролей в кино и счастья в любви. Но роль дают небольшую, а возлюбленный Игорь женится на другой. В отчаянии и смятении бродит она по ночному Петербургу, как вдруг прямо около своего дома находит избитого кем-то красавца. Он - сотрудник частной охранной фирмы, а вообще добрейшей души человек, отец-одиночка и православный художник. Такое сочетание не может оставить сердце Кати равнодушным, и она влюбляется в него. Но тут на горизонте появляется бывший ухажер Кати, следователь прокуратуры, который уже давно шьет дело благородному "Художнику"...
Страна: Росссия
Продолжительность: 02:22:53
Перевод: не требуется
Файл
Кодек: MKV
Качество: DVDRip-AVC
Видео: MPEG-4 AVC, 2300 Кбит/с, 716x568@760x568
Звук: AC3, 6 ch, 448 Кбит/с

raw [info]: 712x568p 16:15 @ 25/1 fps (cfr)
x264 [info]: using SAR=16/15
x264 [info]: using cpu capabilities: MMX2 SSE2Fast SSSE3 SSE4.2 AVX
x264 [info]: profile High, level 4.1
x264 [info]: frame I:46 Avg QP:16.06 size: 71375
x264 [info]: frame P:577 Avg QP:19.31 size: 24865
x264 [info]: frame B:1909 Avg QP:21.61 size: 6469
==========================================================================================================
Общее
Уникальный идентификатор : 248800172564010472145991280173220300044 (0xBB2D2B95915D2C26A75E943F7653050C)
Полное имя : D:Странные мужчины Семеновой Екатерины_1992-DVDRip-AVC.mkv
Формат : Matroska
Версия формата : Version 2
Размер файла : 2,75 Гбайт
Продолжительность : 2 ч. 22 м.
Общий поток : 2751 Кбит/сек
Дата кодирования : UTC 2015-06-04 07:28:53
Программа кодирования : mkvmerge v5.8.0 ('No Sleep / Pillow') built on Sep 2 2012 15:37:04
Библиотека кодирования : libebml v1.2.3 + libmatroska v1.3.0
Видео
Идентификатор : 1
Формат : AVC
Формат/Информация : Advanced Video Codec
Профиль формата : High@L4.1
Параметр CABAC формата : Да
Параметр ReFrames формата : 14 кадров
Идентификатор кодека : V_MPEG4/ISO/AVC
Продолжительность : 2 ч. 22 м.
Битрейт : 2300 Кбит/сек
Ширина : 712 пикселей
Высота : 568 пикселей
Соотношение сторон : 4:3
Соотношение сторон в оригинале : 4:3
Режим частоты кадров : Постоянный
Частота кадров : 25,000 кадров/сек
Цветовое пространство : YUV
Субдискретизация насыщенности : 4:2:0
Битовая глубина : 8 бит
Тип развёртки : Прогрессивная
Бит/(Пиксели*Кадры) : 0.227
Размер потока : 2,24 Гбайт (82%)
Библиотека кодирования : x264 core 146 r2538 121396c
Настройки программы : cabac=1 / ref=14 / deblock=1:-2:-2 / analyse=0x3:0x133 / me=umh / subme=10 / psy=1 / psy_rd=1.05:0.10 / mixed_ref=1 / me_range=32 / chroma_me=1 / trellis=2 / 8x8dct=1 / cqm=0 / deadzone=21,11 / fast_pskip=0 / chroma_qp_offset=-3 / threads=12 / lookahead_threads=2 / sliced_threads=0 / nr=0 / decimate=0 / interlaced=0 / bluray_compat=0 / constrained_intra=0 / bframes=9 / b_pyramid=2 / b_adapt=2 / b_bias=0 / direct=3 / weightb=1 / open_gop=0 / weightp=2 / keyint=250 / keyint_min=25 / scenecut=40 / intra_refresh=0 / rc=2pass / mbtree=0 / bitrate=2300 / ratetol=1.0 / qcomp=0.65 / qpmin=0 / qpmax=39 / qpstep=4 / cplxblur=20.0 / qblur=0.5 / ip_ratio=1.40 / pb_ratio=1.30 / aq=1:1.00
Язык : English
Default : Да
Forced : Нет
Основные цвета : BT.601 PAL
Характеристики трансфера : BT.470 System B, BT.470 System G
Коэффициенты матрицы : BT.601
Аудио
Идентификатор : 2
Формат : AC-3
Формат/Информация : Audio Coding 3
Расширение режима : CM (complete main)
Параметр Endianness формата : Big
Идентификатор кодека : A_AC3
Продолжительность : 2 ч. 22 м.
Вид битрейта : Постоянный
Битрейт : 448 Кбит/сек
Каналы : 6 каналов
Расположение каналов : Front: L C R, Side: L R, LFE
Частота : 48,0 КГц
Битовая глубина : 16 бит
Метод сжатия : С потерями
Размер потока : 458 Мбайт (16%)
Язык : Russian
Default : Да
Forced : Нет

Релиз от:
Автор релиза:
На кинозал не перезаливать!



   Похожие торренты   Торрент   Размер 
В этой теме нет новых непрочитанных сообщений. Странные мужчины Семеновой Екатерины (1992) DVDRip

3 | 4

2.3 ГБ

В этой теме нет новых непрочитанных сообщений. История русских царей. От Екатерины I до Екатерины II (2000) DVDRip

41 | 5

352.34 МБ

В этой теме нет новых непрочитанных сообщений. Мушкетеры Екатерины (2007) DVDRip

1530 | 214

4.08 ГБ

В этой теме нет новых непрочитанных сообщений. Очень странные дела / Крайне странные события / Stranger Things [01х01-05 из 08] (2016) WEBRip 1080p | Jaskier

110 | 82

16.71 ГБ

В этой теме нет новых непрочитанных сообщений. Очень странные дела / Крайне странные события / Stranger Things [01х01-05 из 08] (2016) WEBRip 720p | Jaskier

260 | 119

7.81 ГБ

В этой теме нет новых непрочитанных сообщений. Очень странные дела / Крайне странные события / Stranger Things [01х01-05 из 08] (2016) WEBRip 1080p | Jaskier

184 | 253

26.92 ГБ

В этой теме нет новых непрочитанных сообщений. Очень странные дела / Крайне странные события / Stranger Things [S01] (2016) WEBRip 2160р | Jaskier, NewStudio

55 | 55

96.37 ГБ




Вы не можете начинать темы
Вы не можете отвечать на сообщения
Вы не можете редактировать свои сообщения
Вы не можете удалять свои сообщения
Вы не можете добавлять вложения

Перейти:  
Для Мосгорсуда, Роскомнадзора и рекламодателей: mosgorsud-torrent[собачка]yandex.ru
 Вход
ppkBB3cker v.2 © 2008-2014 @ PPK
[ Time : 0.031s | 15 Queries | GZIP : Off ]

cron