img image001 image001 image001 image001 image001 image001 image001 image001 image001 image001 image001 image001 image001 image001 image001

Planets Sun Sun Sun
Статистика раздачи
Автор: Nickolas3434 | Размер: 752.9 МБ | Добавлен: 06 июн 2015, 21:36
Раздают: 23    Качают: 13
Скачать торрент
Скачать торрент
Описание торрента

СообщениеДобавлено: 06 июн 2015, 21:36 

Страна: СССР
Производство: Свердловская киностудия
Жанр: драма
Год выпуска: 1947
Продолжительность: 01:19:32
Перевод: Не требуется
Cубтитры: нет
Оригинальная аудиодорожка: русский
Режиссер: Александр Оленин, Иван Правов
В ролях:
Василий Ванин, Всеволод Санаев, Нина Алисова, Л. Седова, Евгений Агуров, Иоаким Максимов-Кошкинский, Анна Кожевникова, Лидия Старокольцева, В. Белов, С. Прищепа, Т. Залевская, И. Лепинская...
Описание:
Молодой геолог Сергей Нестеров, вернувшись после службы в армии, намерен продолжить прерванную Великой Отечественной работу по изысканию промышленных залежей уральских алмазов. Своим рвением Сергей удивляет начальника, ставит в неловкое положение свою невесту Варвару и дает прекрасный повод другим геологам поиздеваться над собой. Но Сергей твердо идет к цели и, в конце концов, вместе с Христиной находит богатейшие россыпи алмазов.





Источник: DVB
Качество видео: SATRip
Формат видео: AVI
Видео: 672x496 (4:3), 25 fps, XviD ~ 1186 kbps avg, 0.142 bit/pixel
Аудио: 48 kHz, MP3 2.0, 128 kbps
Раздача от:
Общее
Полное имя : Almazy.1947.SATRip_[New-team]_by_AVP_Studio.avi
Формат : AVI
Формат/Информация : Audio Video Interleave
Размер файла : 753 Мбайт
Продолжительность : 1 ч. 19 м.
Режим общего битрейта : Переменный
Общий поток : 1323 Кбит/сек
Программа кодирования : VirtualDubModRus 1.5.10.2 (build 2542/release)
Библиотека кодирования : VirtualDubMod build 2542/release
Видео
Идентификатор : 0
Формат : MPEG-4 Visual
Профиль формата : Advanced Simple@L5
Параметр BVOP формата : 1
Параметр QPel формата : Нет
Параметр GMC формата : Без точки перехода
Параметр матрицы формата : Выборочная
Идентификатор кодека : XVID
Идентификатор кодека/Подсказка : XviD
Продолжительность : 1 ч. 19 м.
Битрейт : 1186 Кбит/сек
Ширина : 672 пикселя
Высота : 496 пикселей
Соотношение сторон : 4:3
Частота кадров : 25,000 кадров/сек
Цветовое пространство : YUV
Субдискретизация насыщенности : 4:2:0
Битовая глубина : 8 бит
Тип развёртки : Прогрессивная
Метод сжатия : С потерями
Бит/(Пиксели*Кадры) : 0.142
Размер потока : 675 Мбайт (90%)
Библиотека кодирования : XviD 73
Аудио
Идентификатор : 1
Формат : MPEG Audio
Версия формата : Version 1
Профиль формата : Layer 3
Режим : Joint stereo
Расширение режима : MS Stereo
Идентификатор кодека : 55
Идентификатор кодека/Подсказка : MP3
Продолжительность : 1 ч. 19 м.
Вид битрейта : Переменный
Битрейт : 128 Кбит/сек
Каналы : 2 канала
Частота : 48,0 КГц
Метод сжатия : С потерями
Размер потока : 72,8 Мбайт (10%)
Выравнивание : Разделение по промежуткам
Продолжительность промежутка : 40 мс. (1,00 видеокадр)
Время предзагрузки промежутка : 500 мс





   Похожие торренты   Торрент   Размер 
В этой теме нет новых непрочитанных сообщений. Алмазы (1947) SATRip-AVC от New-Team

36 | 7

1.09 ГБ

В этой теме нет новых непрочитанных сообщений. Повесть о «Неистовом» (1947) SATRip от New-Team

20 | 4

1.46 ГБ

В этой теме нет новых непрочитанных сообщений. Повесть о «Неистовом» (1947) SATRip от New-Team

22 | 18

745.32 МБ

В этой теме нет новых непрочитанных сообщений. Повесть о «Неистовом» (1947) SATRip-AVC от New-Team

43 | 12

1.46 ГБ

В этой теме нет новых непрочитанных сообщений. Алмазы Сталина [01-04 из 04] (2016) SATRip от РиперАМ

6917 | 679

2.17 ГБ

В этой теме нет новых непрочитанных сообщений. Пирогов (1947) DVDRip от New-Team

62 | 19

1.46 ГБ

В этой теме нет новых непрочитанных сообщений. Весна (1947) DVDRip-AVC от New-Team

183 | 25

1.46 ГБ




Вы не можете начинать темы
Вы не можете отвечать на сообщения
Вы не можете редактировать свои сообщения
Вы не можете удалять свои сообщения
Вы не можете добавлять вложения

Перейти:  
Для Мосгорсуда, Роскомнадзора и рекламодателей: mosgorsud-torrent[собачка]yandex.ru
Настройки
ppkBB3cker v.2 © 2008-2014 @ PPK
[ Time : 0.015s | 15 Queries | GZIP : Off ]
CGP [Extreme] output time : 0.00021s | 0 Queries | GZIP : Off

Торрент трекер RUTOR.IN, Не можете зайти на rutor.org? Какой новый адрес рутор? Какое зеркало рутор? Не работает rutor.org и зеркала? Тогда наш торрент специально для вас. Rutor.in неофициальное зеркало rutor. В случае если у Вас заблокирован rutor или вдруг Вы не можете на него зайти, то Вы без труда сможете скачать бесплатно и без рекламы последние новинки кино, игр, сериалов и прочего у нас, на Rutor.in. Не нужно использовать прокси, чтобы зайти на рутор, достаточно воспользоваться нашим ресурсом. Все новые фильмы, игры, сериалы, книги и музыка за 2013 и 2014 годы через торрент бесплатно. Скачивайте фильмы в хорошем качестве, игры для пк, xbox, playstation без регистрации. У нас вы найдете новые Зарубежные сериалы и Русские сериалы 2013, 2014, 2015 годов. Оставайтесь с нами, качайте любимые фильмы, игры, сериалы, книги и музыку.