img image001 image001 image001 image001 image001 image001 image001 image001 image001 image001 image001 image001 image001 image001 image001

Planets Sun Sun Sun
Статистика раздачи
Автор: Nickolas3434 | Размер: 1.46 ГБ | Добавлен: 07 июн 2015
Раздают: 50    Качают: 4
Скачать торрент
Скачать торрент
Описание торрента

СообщениеДобавлено: 07 июн 2015 

Страна: СССР
Производство: Мосфильм
Жанр: мюзикл, фантастика, мелодрама, комедия
Год выпуска: 1947
Продолжительность: 01:41:56
Перевод: Не требуется
Cубтитры: нет
Оригинальная аудиодорожка: русский
Режиссер: Григорий Александров
В ролях:
Любовь Орлова, Николай Черкасов, Николай Коновалов, Михаил Сидоркин, Василий Зайчиков, Ростислав Плятт, Фаина Раневская, Рина Зелёная, Борис Петкер, Татьяна Гурецкая...
Описание:
Лирическая комедия, тему которой сами герои определяют как пробуждение весны в душе человека. Молодая артистка оперетты Вера Шатрова впервые снимается в кино — ей предстоит сыграть роль Ирины Никитиной, крупного ученого, руководительницы Института солнца. Благодаря удивительному сходству, Никитина и Шатрова постоянно оказываются в самых невероятных ситуациях и… каждая встречает свою любовь.





Источник: DVB
Качество видео: SATRip
Формат видео: AVI
Видео: 704x512 (1,375:1), 25 fps, XviD ~ 1849 kbps avg, 0.205 bit/pixel
Аудио: 48 kHz, Dolby Digital AC3 2.0, 192 kbps
Раздача от:
Общее
Полное имя : Vesna.1947.SATRip_[New-team]_by_AVP_Studio.avi
Формат : AVI
Формат/Информация : Audio Video Interleave
Размер файла : 1,46 Гбайт
Продолжительность : 1 ч. 41 м.
Общий поток : 2051 Кбит/сек
Программа кодирования : VirtualDubModRus 1.5.10.2 (build 2542/release)
Библиотека кодирования : VirtualDubMod build 2542/release
Видео
Идентификатор : 0
Формат : MPEG-4 Visual
Профиль формата : Advanced Simple@L5
Параметр BVOP формата : 1
Параметр QPel формата : Нет
Параметр GMC формата : Без точки перехода
Параметр матрицы формата : Выборочная
Идентификатор кодека : XVID
Идентификатор кодека/Подсказка : XviD
Продолжительность : 1 ч. 41 м.
Битрейт : 1849 Кбит/сек
Ширина : 704 пикселя
Высота : 512 пикселей
Соотношение сторон : 1,375
Частота кадров : 25,000 кадров/сек
Цветовое пространство : YUV
Субдискретизация насыщенности : 4:2:0
Битовая глубина : 8 бит
Тип развёртки : Прогрессивная
Метод сжатия : С потерями
Бит/(Пиксели*Кадры) : 0.205
Размер потока : 1,32 Гбайт (90%)
Библиотека кодирования : XviD 73
Аудио
Идентификатор : 1
Формат : AC-3
Формат/Информация : Audio Coding 3
Расширение режима : CM (complete main)
Параметр Endianness формата : Big
Идентификатор кодека : 2000
Продолжительность : 1 ч. 41 м.
Вид битрейта : Постоянный
Битрейт : 192 Кбит/сек
Каналы : 2 канала
Расположение каналов : Front: L R
Частота : 48,0 КГц
Битовая глубина : 16 бит
Метод сжатия : С потерями
Размер потока : 140 Мбайт (9%)
Выравнивание : Разделение по промежуткам
Продолжительность промежутка : 40 мс. (1,00 видеокадр)
Время предзагрузки промежутка : 500 мс





   Похожие торренты   Торрент   Размер 
В этой теме нет новых непрочитанных сообщений. Весна (1947) DVDRip от New-Team

64 | 14

745.48 МБ

В этой теме нет новых непрочитанных сообщений. Весна (1947) DVDRip-AVC от New-Team

183 | 25

1.46 ГБ

В этой теме нет новых непрочитанных сообщений. Весна (1947) DVDRip

195 | 31

1.37 ГБ

В этой теме нет новых непрочитанных сообщений. Во имя жизни (1947) DVDRip от New-Team

20 | 5

745.88 МБ

В этой теме нет новых непрочитанных сообщений. Во имя жизни (1947) DVDRip-AVC от New-Team

27 | 7

1.46 ГБ

В этой теме нет новых непрочитанных сообщений. Новый дом (1947) DVDRip-AVC от New-Team

11 | 12

1.09 ГБ

В этой теме нет новых непрочитанных сообщений. Новый дом (1947) DVDRip от New-Team

9 | 18

1.09 ГБ




Вы не можете начинать темы
Вы не можете отвечать на сообщения
Вы не можете редактировать свои сообщения
Вы не можете удалять свои сообщения
Вы не можете добавлять вложения

Перейти:  
Для Мосгорсуда, Роскомнадзора и рекламодателей: mosgorsud-torrent[собачка]yandex.ru
 Вход
ppkBB3cker v.2 © 2008-2014 @ PPK
[ Time : 0.027s | 16 Queries | GZIP : Off ]

Торрент трекер RUTOR.IN, Не можете зайти на rutor.org? Какой новый адрес рутор? Какое зеркало рутор? Не работает rutor.org и зеркала? Тогда наш торрент специально для вас. Rutor.in неофициальное зеркало rutor. В случае если у Вас заблокирован rutor или вдруг Вы не можете на него зайти, то Вы без труда сможете скачать бесплатно и без рекламы последние новинки кино, игр, сериалов и прочего у нас, на Rutor.in. Не нужно использовать прокси, чтобы зайти на рутор, достаточно воспользоваться нашим ресурсом. Все новые фильмы, игры, сериалы, книги и музыка за 2013 и 2014 годы через торрент бесплатно. Скачивайте фильмы в хорошем качестве, игры для пк, xbox, playstation без регистрации. У нас вы найдете новые Зарубежные сериалы и Русские сериалы 2013, 2014, 2015 годов. Оставайтесь с нами, качайте любимые фильмы, игры, сериалы, книги и музыку.
cron