img image001 image001 image001 image001 image001 image001 image001 image001 image001 image001 image001 image001 image001 image001 image001

Planets Sun Sun Sun
Статистика раздачи
Автор: Nickolas3434 | Размер: 745.48 МБ | Добавлен: 07 июн 2015
Раздают: 64    Качают: 14
Скачать торрент
Скачать торрент
Описание торрента

СообщениеДобавлено: 07 июн 2015 

Страна: СССР
Производство: Мосфильм
Жанр: мюзикл, фантастика, мелодрама, комедия
Год выпуска: 1947
Продолжительность: 01:41:56
Перевод: Не требуется
Cубтитры: нет
Оригинальная аудиодорожка: русский
Режиссер: Григорий Александров
В ролях:
Любовь Орлова, Николай Черкасов, Николай Коновалов, Михаил Сидоркин, Василий Зайчиков, Ростислав Плятт, Фаина Раневская, Рина Зелёная, Борис Петкер, Татьяна Гурецкая...
Описание:
Лирическая комедия, тему которой сами герои определяют как пробуждение весны в душе человека. Молодая артистка оперетты Вера Шатрова впервые снимается в кино — ей предстоит сыграть роль Ирины Никитиной, крупного ученого, руководительницы Института солнца. Благодаря удивительному сходству, Никитина и Шатрова постоянно оказываются в самых невероятных ситуациях и… каждая встречает свою любовь.





Источник: DVB
Качество видео: SATRip
Формат видео: AVI
Видео: 576x416 (1,385:1), 25 fps, XviD ~ 885 kbps avg, 0.148 bit/pixel
Аудио: 48 kHz, MP3 2.0, 128 kbps
Раздача от:
Общее
Полное имя : Vesna.1947.SATRip-745_[New-team]_by_AVP_Studio.avi
Формат : AVI
Формат/Информация : Audio Video Interleave
Размер файла : 745 Мбайт
Продолжительность : 1 ч. 41 м.
Общий поток : 1022 Кбит/сек
Программа кодирования : VirtualDubModRus 1.5.10.2 (build 2542/release)
Библиотека кодирования : VirtualDubMod build 2542/release
Видео
Идентификатор : 0
Формат : MPEG-4 Visual
Профиль формата : Advanced Simple@L5
Параметр BVOP формата : 1
Параметр QPel формата : Нет
Параметр GMC формата : Без точки перехода
Параметр матрицы формата : Выборочная
Идентификатор кодека : XVID
Идентификатор кодека/Подсказка : XviD
Продолжительность : 1 ч. 41 м.
Битрейт : 885 Кбит/сек
Ширина : 576 пикселей
Высота : 416 пикселей
Соотношение сторон : 1,385
Частота кадров : 25,000 кадров/сек
Цветовое пространство : YUV
Субдискретизация насыщенности : 4:2:0
Битовая глубина : 8 бит
Тип развёртки : Прогрессивная
Метод сжатия : С потерями
Бит/(Пиксели*Кадры) : 0.148
Размер потока : 645 Мбайт (87%)
Библиотека кодирования : XviD 73
Аудио
Идентификатор : 1
Формат : MPEG Audio
Версия формата : Version 1
Профиль формата : Layer 3
Идентификатор кодека : 55
Идентификатор кодека/Подсказка : MP3
Продолжительность : 1 ч. 41 м.
Вид битрейта : Постоянный
Битрейт : 128 Кбит/сек
Каналы : 2 канала
Частота : 48,0 КГц
Метод сжатия : С потерями
Размер потока : 93,3 Мбайт (13%)
Выравнивание : Соединение по промежуткам
Продолжительность промежутка : 40 мс. (1,00 видеокадр)
Время предзагрузки промежутка : 504 мс.
Библиотека кодирования : LAME3.99r
Настройки программы : -m s -V 4 -q 2 -lowpass 17 -b 128





   Похожие торренты   Торрент   Размер 
В этой теме нет новых непрочитанных сообщений. Весна (1947) DVDRip-AVC от New-Team

183 | 25

1.46 ГБ

В этой теме нет новых непрочитанных сообщений. Весна (1947) DVDRip от New-Team

50 | 4

1.46 ГБ

В этой теме нет новых непрочитанных сообщений. Весна (1947) DVDRip

195 | 31

1.37 ГБ

В этой теме нет новых непрочитанных сообщений. Пирогов (1947) DVDRip-AVC от New-Team

31 | 5

1.46 ГБ

В этой теме нет новых непрочитанных сообщений. Во имя жизни (1947) DVDRip от New-Team

8 | 7

1.46 ГБ

В этой теме нет новых непрочитанных сообщений. Во имя жизни (1947) DVDRip от New-Team

20 | 5

745.88 МБ

В этой теме нет новых непрочитанных сообщений. Пирогов (1947) DVDRip от New-Team

62 | 19

1.46 ГБ




Вы не можете начинать темы
Вы не можете отвечать на сообщения
Вы не можете редактировать свои сообщения
Вы не можете удалять свои сообщения
Вы не можете добавлять вложения

Перейти:  
Для Мосгорсуда, Роскомнадзора и рекламодателей: mosgorsud-torrent[собачка]yandex.ru
 Вход
ppkBB3cker v.2 © 2008-2014 @ PPK
[ Time : 0.026s | 15 Queries | GZIP : Off ]

Торрент трекер RUTOR.IN, Не можете зайти на rutor.org? Какой новый адрес рутор? Какое зеркало рутор? Не работает rutor.org и зеркала? Тогда наш торрент специально для вас. Rutor.in неофициальное зеркало rutor. В случае если у Вас заблокирован rutor или вдруг Вы не можете на него зайти, то Вы без труда сможете скачать бесплатно и без рекламы последние новинки кино, игр, сериалов и прочего у нас, на Rutor.in. Не нужно использовать прокси, чтобы зайти на рутор, достаточно воспользоваться нашим ресурсом. Все новые фильмы, игры, сериалы, книги и музыка за 2013 и 2014 годы через торрент бесплатно. Скачивайте фильмы в хорошем качестве, игры для пк, xbox, playstation без регистрации. У нас вы найдете новые Зарубежные сериалы и Русские сериалы 2013, 2014, 2015 годов. Оставайтесь с нами, качайте любимые фильмы, игры, сериалы, книги и музыку.