img image001 image001 image001 image001 image001 image001 image001 image001 image001 image001 image001 image001 image001 image001 image001

Planets Sun Sun Sun
Статистика раздачи
Автор: Nickolas3434 | Размер: 2.24 ГБ | Добавлен: 11 июн 2015
Раздают: 2195    Качают: 68
Скачать торрент
Скачать торрент
Описание торрента

СообщениеДобавлено: 11 июн 2015 


Информация о фильме
Название: Смертельно живой
Год выхода: 2015
Жанр: Tриллер, драма, детектив
Режиссер: Максим Стецков
В ролях: Виктория Варлей, Максим Стецков, Александр Герелес, Вячеслав Довженко, Олег Примогенов, Михаил Кришталь
О фильме:
Семен — известный писатель. На протяжении трех лет ему приходят смс сообщения от неизвестного номера с предсказанием будущего. Что бы Семен не делал, все предсказания сбывались. Все попытки найти автора сообщений увенчались провалом. Поэтому Семен продолжает жить спокойной жизнью. До тех пор, пока ему не приходит очередное сообщение…

Страна: Украина
Продолжительность: 01:16:24
Язык: Русский
Файл
Кодек: MPEG-4 AVC
Качество: WEB-DL 1080p
Видео: MPEG-4 AVC, ~ 4000 Кбит/с, 1912x816, 25 кадр/с
Звук: AC3, 2 ch, 192 Кбит/с
Семпл
Релиз от:
General
Complete name : Smertelno.zhivoy.2015.WEB-DL.(1080p).ExKinoRay.mkv
Format : Matroska
Format version : Version 2
File size : 2.24 GiB
Duration : 1h 16mn
Overall bit rate : 4 194 Kbps
Encoded date : UTC 2015-06-10 02:32:07
Writing application : mkvmerge v5.8.0 ('No Sleep / Pillow') built on Sep 2 2012 15:37:04
Writing library : libebml v1.2.3 + libmatroska v1.3.0
Video
ID : 1
Format : AVC
Format/Info : Advanced Video Codec
Format profile : High@L4.0
Format settings, CABAC : Yes
Format settings, ReFrames : 3 frames
Format settings, GOP : M=1, N=15
Codec ID : V_MPEG4/ISO/AVC
Duration : 1h 16mn
Bit rate : 3 919 Kbps
Width : 1 912 pixels
Height : 816 pixels
Display aspect ratio : 2.35:1
Frame rate mode : Constant
Frame rate : 25.000 fps
Color space : YUV
Chroma subsampling : 4:2:0
Bit depth : 8 bits
Scan type : Progressive
Bits/(Pixel*Frame) : 0.100
Stream size : 2.09 GiB (93%)
Language : Russian
Default : Yes
Forced : Yes
Color primaries : BT.709
Transfer characteristics : BT.709
Matrix coefficients : BT.709
Color range : Limited
Audio
ID : 2
Format : AC-3
Format/Info : Audio Coding 3
Mode extension : CM (complete main)
Format settings, Endianness : Big
Codec ID : A_AC3
Duration : 1h 16mn
Bit rate mode : Constant
Bit rate : 192 Kbps
Channel(s) : 2 channels
Channel positions : Front: L R
Sampling rate : 48.0 KHz
Bit depth : 16 bits
Compression mode : Lossy
Stream size : 105 MiB (5%)
Language : Russian
Default : Yes
Forced : Yes





   Похожие торренты   Торрент   Размер 
В этой теме нет новых непрочитанных сообщений. Смертельно живой (2015) WEB-DLRip-AVC

465 | 13

750.07 МБ

В этой теме нет новых непрочитанных сообщений. Смертельно живой (2015) WEB-DLRip

362 | 25

1.36 ГБ

В этой теме нет новых непрочитанных сообщений. Смертельно живой (2015) WEB-DLRip

363 | 11

782.89 МБ

В этой теме нет новых непрочитанных сообщений. Смертельно живой (2015) WEB-DLRip от torrentfilm

134 | 16

732.87 МБ

В этой теме нет новых непрочитанных сообщений. Ночь Живой Дэб / Night of the Living Deb (2015) HDRip от ExKinoRay | L2

1426 | 78

733.36 МБ

В этой теме нет новых непрочитанных сообщений. Живой Высоцкий (2011) HDTVRip от ExKinoRay

52 | 2

661.83 МБ

В этой теме нет новых непрочитанных сообщений. BBC: Живой мир. Тигр - убийца / BBC: Natural World. Tiger Kill (2007) DVDRip от ExKinoRay

61 | 9

703.87 МБ




Вы не можете начинать темы
Вы не можете отвечать на сообщения
Вы не можете редактировать свои сообщения
Вы не можете удалять свои сообщения
Вы не можете добавлять вложения

Перейти:  
Для Мосгорсуда, Роскомнадзора и рекламодателей: mosgorsud-torrent[собачка]yandex.ru
 Вход
ppkBB3cker v.2 © 2008-2014 @ PPK
[ Time : 0.062s | 14 Queries | GZIP : Off ]

Торрент трекер RUTOR.IN, Не можете зайти на rutor.org? Какой новый адрес рутор? Какое зеркало рутор? Не работает rutor.org и зеркала? Тогда наш торрент специально для вас. Rutor.in неофициальное зеркало rutor. В случае если у Вас заблокирован rutor или вдруг Вы не можете на него зайти, то Вы без труда сможете скачать бесплатно и без рекламы последние новинки кино, игр, сериалов и прочего у нас, на Rutor.in. Не нужно использовать прокси, чтобы зайти на рутор, достаточно воспользоваться нашим ресурсом. Все новые фильмы, игры, сериалы, книги и музыка за 2013 и 2014 годы через торрент бесплатно. Скачивайте фильмы в хорошем качестве, игры для пк, xbox, playstation без регистрации. У нас вы найдете новые Зарубежные сериалы и Русские сериалы 2013, 2014, 2015 годов. Оставайтесь с нами, качайте любимые фильмы, игры, сериалы, книги и музыку.