img image001 image001 image001 image001 image001 image001 image001 image001 image001 image001 image001 image001 image001 image001 image001

Planets Sun Sun Sun
Статистика раздачи
Автор: Nickolas3434 | Размер: 1.46 ГБ | Добавлен: 10 июн 2015
Раздают: 9    Качают: 2
Скачать торрент
Скачать торрент
Описание торрента

СообщениеДобавлено: 10 июн 2015 

Страна: СССР
Производство: Мосфильм
Жанр: драма, военный
Год выпуска: 1947
Продолжительность: 01:29:29
Перевод: Не требуется
Cубтитры: нет
Оригинальная аудиодорожка: русский
Режиссер: Борис Бабочкин
В ролях:
Борис Бабочкин, Виктор Миронов, Алексей Алексеев, Чеслав Сушкевич, Дмитрий Дубов, Виктор Проклов, Иван Кузнецов, О. Мерцедин, Александр Баранов, Александр Гречаный, Пётр Савин, Михаил Глузский, Иосиф Ваньков, М. Атаев, Андрей Карасев, Виталий Клиш, Яков Трайнин, В. Сударев, Иван Переверзев, Леонид Кмит, Александр Смирнов, Валериан Казанский, В. Бондарева, Галина Фролова, Е. Феоктистова, Эмилия Кравченко, Михаил Державин (ст.), Боря Бовыкин, Лев Потёмкин...
Описание:
Один из кораблей Северного флота, миноносец "Неистовый", получает задание провести через зону действия немецких подводных лодок в Баренцовом море танкер с горючим, которое ждут на северных авиабазах.





Источник: DVB
Качество видео: SATRip
Формат видео: AVI
Видео: 688x512 (4:3), 25 fps, XviD ~ 2134 kbps avg, 0.242 bit/pixel
Аудио: 48 kHz, Dolby Digital AC3 2.0, 192 kbps
Раздача от:
Общее
Полное имя : Povest.o.Neistovom.1947.SATRip_[New-team]_by_AVP_Studio.avi
Формат : AVI
Формат/Информация : Audio Video Interleave
Размер файла : 1,46 Гбайт
Продолжительность : 1 ч. 29 м.
Общий поток : 2336 Кбит/сек
Программа кодирования : VirtualDubModRus 1.5.10.2 (build 2542/release)
Библиотека кодирования : VirtualDubMod build 2542/release
Видео
Идентификатор : 0
Формат : MPEG-4 Visual
Профиль формата : Advanced Simple@L5
Параметр BVOP формата : 1
Параметр QPel формата : Нет
Параметр GMC формата : Без точки перехода
Параметр матрицы формата : Выборочная
Идентификатор кодека : XVID
Идентификатор кодека/Подсказка : XviD
Продолжительность : 1 ч. 29 м.
Битрейт : 2134 Кбит/сек
Ширина : 688 пикселей
Высота : 512 пикселей
Соотношение сторон : 4:3
Частота кадров : 25,000 кадров/сек
Цветовое пространство : YUV
Субдискретизация насыщенности : 4:2:0
Битовая глубина : 8 бит
Тип развёртки : Прогрессивная
Метод сжатия : С потерями
Бит/(Пиксели*Кадры) : 0.242
Размер потока : 1,33 Гбайт (91%)
Библиотека кодирования : XviD 73
Аудио
Идентификатор : 1
Формат : MPEG Audio
Версия формата : Version 1
Профиль формата : Layer 2
Идентификатор кодека : 50
Продолжительность : 1 ч. 29 м.
Вид битрейта : Постоянный
Битрейт : 192 Кбит/сек
Каналы : 2 канала
Частота : 48,0 КГц
Метод сжатия : С потерями
Размер потока : 123 Мбайт (8%)
Выравнивание : Соединение по промежуткам
Продолжительность промежутка : 40 мс. (1,00 видеокадр)
Время предзагрузки промежутка : 504 мс





   Похожие торренты   Торрент   Размер 
В этой теме нет новых непрочитанных сообщений. Повесть о «Неистовом» (1947) SATRip-AVC от New-Team

7 | 9

1.46 ГБ

В этой теме нет новых непрочитанных сообщений. Повесть о «Неистовом» (1947) SATRip от New-Team

6 | 17

745.32 МБ

В этой теме нет новых непрочитанных сообщений. Неоконченная повесть (1955) SATRip-AVC от New-Team

73 | 6

1.09 ГБ

В этой теме нет новых непрочитанных сообщений. Неоконченная повесть (1955) SATRip от New-Team

31 | 1

744.04 МБ

В этой теме нет новых непрочитанных сообщений. Неоконченная повесть (1955) SATRip от New-Team

13 | 2

1.09 ГБ

В этой теме нет новых непрочитанных сообщений. Алмазы (1947) SATRip-AVC от New-Team

21 | 7

1.09 ГБ

В этой теме нет новых непрочитанных сообщений. Алмазы (1947) SATRip от New-Team

11 | 13

752.9 МБ




Вы не можете начинать темы
Вы не можете отвечать на сообщения
Вы не можете редактировать свои сообщения
Вы не можете удалять свои сообщения
Вы не можете добавлять вложения

Перейти:  
Для Мосгорсуда, Роскомнадзора и рекламодателей: mosgorsud-torrent[собачка]yandex.ru
 Вход
ppkBB3cker v.2 © 2008-2014 @ PPK
[ Time : 0.025s | 16 Queries | GZIP : Off ]

cron