img image001 image001 image001 image001 image001 image001 image001 image001 image001 image001 image001 image001 image001 image001 image001

Planets Sun Sun Sun
Статистика раздачи
Автор: Nickolas3434 | Размер: 745.32 МБ | Добавлен: 11 июн 2015
Раздают: 22    Качают: 18
Скачать торрент
Скачать торрент
Описание торрента

СообщениеДобавлено: 11 июн 2015 

Страна: СССР
Производство: Мосфильм
Жанр: драма, военный
Год выпуска: 1947
Продолжительность: 01:29:29
Перевод: Не требуется
Cубтитры: нет
Оригинальная аудиодорожка: русский
Режиссер: Борис Бабочкин
В ролях:
Борис Бабочкин, Виктор Миронов, Алексей Алексеев, Чеслав Сушкевич, Дмитрий Дубов, Виктор Проклов, Иван Кузнецов, О. Мерцедин, Александр Баранов, Александр Гречаный, Пётр Савин, Михаил Глузский, Иосиф Ваньков, М. Атаев, Андрей Карасев, Виталий Клиш, Яков Трайнин, В. Сударев, Иван Переверзев, Леонид Кмит, Александр Смирнов, Валериан Казанский, В. Бондарева, Галина Фролова, Е. Феоктистова, Эмилия Кравченко, Михаил Державин (ст.), Боря Бовыкин, Лев Потёмкин...
Описание:
Один из кораблей Северного флота, миноносец "Неистовый", получает задание провести через зону действия немецких подводных лодок в Баренцовом море танкер с горючим, которое ждут на северных авиабазах.





Источник: DVB
Качество видео: SATRip
Формат видео: AVI
Видео: 640x480 (4:3), 25 fps, XviD ~ 1027 kbps avg, 0.134 bit/pixel
Аудио: 48 kHz, MP3 2.0, 128 kbps
Раздача от:
Общее
Полное имя : Povest.o.Neistovom.1947.SATRip-745_[New-team]_by_AVP_Studio.avi
Формат : AVI
Формат/Информация : Audio Video Interleave
Размер файла : 745 Мбайт
Продолжительность : 1 ч. 29 м.
Общий поток : 1165 Кбит/сек
Программа кодирования : VirtualDubModRus 1.5.10.2 (build 2542/release)
Библиотека кодирования : VirtualDubMod build 2542/release
Видео
Идентификатор : 0
Формат : MPEG-4 Visual
Профиль формата : Advanced Simple@L5
Параметр BVOP формата : 1
Параметр QPel формата : Нет
Параметр GMC формата : Без точки перехода
Параметр матрицы формата : Выборочная
Идентификатор кодека : XVID
Идентификатор кодека/Подсказка : XviD
Продолжительность : 1 ч. 29 м.
Битрейт : 1027 Кбит/сек
Ширина : 640 пикселей
Высота : 480 пикселей
Соотношение сторон : 4:3
Частота кадров : 25,000 кадров/сек
Цветовое пространство : YUV
Субдискретизация насыщенности : 4:2:0
Битовая глубина : 8 бит
Тип развёртки : Прогрессивная
Метод сжатия : С потерями
Бит/(Пиксели*Кадры) : 0.134
Размер потока : 657 Мбайт (88%)
Библиотека кодирования : XviD 73
Аудио
Идентификатор : 1
Формат : MPEG Audio
Версия формата : Version 1
Профиль формата : Layer 3
Идентификатор кодека : 55
Идентификатор кодека/Подсказка : MP3
Продолжительность : 1 ч. 29 м.
Вид битрейта : Постоянный
Битрейт : 128 Кбит/сек
Каналы : 2 канала
Частота : 48,0 КГц
Метод сжатия : С потерями
Размер потока : 81,9 Мбайт (11%)
Выравнивание : Соединение по промежуткам
Продолжительность промежутка : 40 мс. (1,00 видеокадр)
Время предзагрузки промежутка : 504 мс.
Библиотека кодирования : LAME3.99r
Настройки программы : -m s -V 4 -q 2 -lowpass 17 -b 128





   Похожие торренты   Торрент   Размер 
В этой теме нет новых непрочитанных сообщений. Повесть о «Неистовом» (1947) SATRip от New-Team

20 | 4

1.46 ГБ

В этой теме нет новых непрочитанных сообщений. Повесть о «Неистовом» (1947) SATRip-AVC от New-Team

43 | 12

1.46 ГБ

В этой теме нет новых непрочитанных сообщений. Неоконченная повесть (1955) SATRip-AVC от New-Team

83 | 8

1.09 ГБ

В этой теме нет новых непрочитанных сообщений. Неоконченная повесть (1955) SATRip от New-Team

33 | 5

1.09 ГБ

В этой теме нет новых непрочитанных сообщений. Неоконченная повесть (1955) SATRip от New-Team

25 | 4

744.04 МБ

В этой теме нет новых непрочитанных сообщений. Алмазы (1947) SATRip-AVC от New-Team

36 | 7

1.09 ГБ

В этой теме нет новых непрочитанных сообщений. Алмазы (1947) SATRip от New-Team

23 | 13

752.9 МБ




Вы не можете начинать темы
Вы не можете отвечать на сообщения
Вы не можете редактировать свои сообщения
Вы не можете удалять свои сообщения
Вы не можете добавлять вложения

Перейти:  
Для Мосгорсуда, Роскомнадзора и рекламодателей: mosgorsud-torrent[собачка]yandex.ru
 Вход
ppkBB3cker v.2 © 2008-2014 @ PPK
[ Time : 0.023s | 16 Queries | GZIP : Off ]

Торрент трекер RUTOR.IN, Не можете зайти на rutor.org? Какой новый адрес рутор? Какое зеркало рутор? Не работает rutor.org и зеркала? Тогда наш торрент специально для вас. Rutor.in неофициальное зеркало rutor. В случае если у Вас заблокирован rutor или вдруг Вы не можете на него зайти, то Вы без труда сможете скачать бесплатно и без рекламы последние новинки кино, игр, сериалов и прочего у нас, на Rutor.in. Не нужно использовать прокси, чтобы зайти на рутор, достаточно воспользоваться нашим ресурсом. Все новые фильмы, игры, сериалы, книги и музыка за 2013 и 2014 годы через торрент бесплатно. Скачивайте фильмы в хорошем качестве, игры для пк, xbox, playstation без регистрации. У нас вы найдете новые Зарубежные сериалы и Русские сериалы 2013, 2014, 2015 годов. Оставайтесь с нами, качайте любимые фильмы, игры, сериалы, книги и музыку.