img image001 image001 image001 image001 image001 image001 image001 image001 image001 image001 image001 image001 image001 image001 image001 image001

Planets Sun Sun Sun
Статистика раздачи
Автор: Nickolas3434 | Размер: 1.46 ГБ | Добавлен: 12 июн 2015
Раздают: 31    Качают: 4
Скачать торрент
Скачать торрент
Описание торрента

СообщениеДобавлено: 12 июн 2015 

Страна: Россия
Производство: Студия Берг Саунд
Жанр: приключения
Год выпуска: 2013
Продолжительность: 01:26:41
Перевод: Не требуется
Cубтитры: нет
Оригинальная аудиодорожка: русский
Режиссер: Аршо Арутюнян
В ролях:
Наталья Бардо, Дмитрий Клепацкий, Александр Носик, Александр Рапопорт, Наталья Громушкина, Арам Караханян, Дэвид Кацарава, Виген Степанян, Армен Петросян, Ерванд Енгибаряняк...
Описание:
Однажды два друга-альпиниста, работающих горными спасателями, влюбленных в одну и ту же девушку, сопровождают туристов в горах Армении. В результате безответственности одного из друзей погибает турист! По решению суда он попадает в тюрьму. В обмен на свободу криминальный авторитет предлагает ему быть горным проводником в одном деле. Нужно достать припрятанный в горной пещере до лучших времен клад. Дороги друзей пересекаются! Их любимую берут в заложники. Им самим угрожает смерть, но отступать некуда… Дружба, обида, корысть, любовь, страх за жизнь — что в результате победит?





Источник: HDTV 1080i
Качество видео: HDTVRip
Формат видео: AVI
Видео: 720x400 (16:9), 25 fps, XviD ~ 1954 kbps avg, 0.271 bit/pixel
Аудио: 48 kHz, Dolby Digital AC3 5.1, 448 kbps
Раздача от:
Общее
Полное имя : Alpinisty.2013.HDTVRip_[New-team]_by_AVP_Studio.avi
Формат : AVI
Формат/Информация : Audio Video Interleave
Размер файла : 1,46 Гбайт
Продолжительность : 1 ч. 26 м.
Общий поток : 2411 Кбит/сек
Программа кодирования : VirtualDubModRus 1.5.10.2 (build 2542/release)
Библиотека кодирования : VirtualDubMod build 2542/release
Видео
Идентификатор : 0
Формат : MPEG-4 Visual
Профиль формата : Advanced Simple@L5
Параметр BVOP формата : 1
Параметр QPel формата : Нет
Параметр GMC формата : Без точки перехода
Параметр матрицы формата : Выборочная
Идентификатор кодека : XVID
Идентификатор кодека/Подсказка : XviD
Продолжительность : 1 ч. 26 м.
Битрейт : 1954 Кбит/сек
Ширина : 720 пикселей
Высота : 400 пикселей
Соотношение сторон : 16:9
Частота кадров : 25,000 кадров/сек
Цветовое пространство : YUV
Субдискретизация насыщенности : 4:2:0
Битовая глубина : 8 бит
Тип развёртки : Прогрессивная
Метод сжатия : С потерями
Бит/(Пиксели*Кадры) : 0.271
Размер потока : 1,18 Гбайт (81%)
Библиотека кодирования : XviD 73
Аудио
Идентификатор : 1
Формат : AC-3
Формат/Информация : Audio Coding 3
Расширение режима : CM (complete main)
Параметр Endianness формата : Big
Идентификатор кодека : 2000
Продолжительность : 1 ч. 26 м.
Вид битрейта : Постоянный
Битрейт : 448 Кбит/сек
Каналы : 6 каналов
Расположение каналов : Front: L C R, Side: L R, LFE
Частота : 48,0 КГц
Битовая глубина : 16 бит
Метод сжатия : С потерями
Размер потока : 278 Мбайт (19%)
Выравнивание : Разделение по промежуткам
Продолжительность промежутка : 40 мс. (1,00 видеокадр)
Время предзагрузки промежутка : 500 мс





   Похожие торренты   Торрент   Размер 
В этой теме нет новых непрочитанных сообщений. Альпинисты (2013) HDTVRip от New-Team

65 | 14

745.94 МБ

В этой теме нет новых непрочитанных сообщений. Альпинисты (2013) HDTVRip-AVC от New-Team

58 | 18

1.46 ГБ

В этой теме нет новых непрочитанных сообщений. Альпинисты (2013) HDTVRip от Шкипер

43 | 4

744.74 МБ

В этой теме нет новых непрочитанных сообщений. Альпинисты (2013) HDTVRip 720p от MediaClub

188 | 14

2.43 ГБ

В этой теме нет новых непрочитанных сообщений. Альпинисты (2013) HDTV 1080i от MediaClub

80 | 12

5.24 ГБ

В этой теме нет новых непрочитанных сообщений. Альпинисты (2014) DVDRip | Лицензия

2695 | 753

1.37 ГБ

В этой теме нет новых непрочитанных сообщений. Альпинисты (2014) DVDRip | Лицензия

455 | 24

750.09 МБ




Вы не можете начинать темы
Вы не можете отвечать на сообщения
Вы не можете редактировать свои сообщения
Вы не можете удалять свои сообщения
Вы не можете добавлять вложения

Перейти:  
 Вход
ppkBB3cker v.2 © 2008-2014 @ PPK
[ Time : 0.031s | 16 Queries | GZIP : Off ]

cron