img image001 image001 image001 image001 image001 image001 image001 image001 image001 image001 image001 image001 image001 image001 image001

Planets Sun Sun Sun
Статистика раздачи
Автор: Nickolas3434 | Размер: 745.94 МБ | Добавлен: 12 июн 2015
Раздают: 106    Качают: 20
Скачать торрент
Скачать торрент
Описание торрента

СообщениеДобавлено: 12 июн 2015 

Страна: Россия
Производство: Студия Берг Саунд
Жанр: приключения
Год выпуска: 2013
Продолжительность: 01:26:41
Перевод: Не требуется
Cубтитры: нет
Оригинальная аудиодорожка: русский
Режиссер: Аршо Арутюнян
В ролях:
Наталья Бардо, Дмитрий Клепацкий, Александр Носик, Александр Рапопорт, Наталья Громушкина, Арам Караханян, Дэвид Кацарава, Виген Степанян, Армен Петросян, Ерванд Енгибаряняк...
Описание:
Однажды два друга-альпиниста, работающих горными спасателями, влюбленных в одну и ту же девушку, сопровождают туристов в горах Армении. В результате безответственности одного из друзей погибает турист! По решению суда он попадает в тюрьму. В обмен на свободу криминальный авторитет предлагает ему быть горным проводником в одном деле. Нужно достать припрятанный в горной пещере до лучших времен клад. Дороги друзей пересекаются! Их любимую берут в заложники. Им самим угрожает смерть, но отступать некуда… Дружба, обида, корысть, любовь, страх за жизнь — что в результате победит?





Источник: HDTV 1080i
Качество видео: HDTVRip
Формат видео: AVI
Видео: 688x384 (16:9), 25 fps, XviD ~ 1065 kbps avg, 0.161 bit/pixel
Аудио: 48 kHz, MP3 2.0, 128 kbps
Раздача от:
Общее
Полное имя : Alpinisty.2013.HDTVRip-745_[New-team]_by_AVP_Studio.avi
Формат : AVI
Формат/Информация : Audio Video Interleave
Размер файла : 746 Мбайт
Продолжительность : 1 ч. 26 м.
Общий поток : 1203 Кбит/сек
Программа кодирования : VirtualDubModRus 1.5.10.2 (build 2542/release)
Библиотека кодирования : VirtualDubMod build 2542/release
Видео
Идентификатор : 0
Формат : MPEG-4 Visual
Профиль формата : Advanced Simple@L5
Параметр BVOP формата : 1
Параметр QPel формата : Нет
Параметр GMC формата : Без точки перехода
Параметр матрицы формата : Выборочная
Идентификатор кодека : XVID
Идентификатор кодека/Подсказка : XviD
Продолжительность : 1 ч. 26 м.
Битрейт : 1065 Кбит/сек
Ширина : 688 пикселей
Высота : 384 пикселя
Соотношение сторон : 16:9
Частота кадров : 25,000 кадров/сек
Цветовое пространство : YUV
Субдискретизация насыщенности : 4:2:0
Битовая глубина : 8 бит
Тип развёртки : Прогрессивная
Метод сжатия : С потерями
Бит/(Пиксели*Кадры) : 0.161
Размер потока : 661 Мбайт (89%)
Библиотека кодирования : XviD 73
Аудио
Идентификатор : 1
Формат : MPEG Audio
Версия формата : Version 1
Профиль формата : Layer 3
Идентификатор кодека : 55
Идентификатор кодека/Подсказка : MP3
Продолжительность : 1 ч. 26 м.
Вид битрейта : Постоянный
Битрейт : 128 Кбит/сек
Каналы : 2 канала
Частота : 48,0 КГц
Метод сжатия : С потерями
Размер потока : 79,4 Мбайт (11%)
Выравнивание : Соединение по промежуткам
Продолжительность промежутка : 40 мс. (1,00 видеокадр)
Время предзагрузки промежутка : 504 мс.
Библиотека кодирования : LAME3.99r
Настройки программы : -m s -V 4 -q 2 -lowpass 17 -b 128





   Похожие торренты   Торрент   Размер 
В этой теме нет новых непрочитанных сообщений. Альпинисты (2013) HDTVRip от New-Team

31 | 4

1.46 ГБ

В этой теме нет новых непрочитанных сообщений. Альпинисты (2013) HDTVRip-AVC от New-Team

95 | 20

1.46 ГБ

В этой теме нет новых непрочитанных сообщений. Альпинисты (2013) HDTVRip от Шкипер

43 | 4

744.74 МБ

В этой теме нет новых непрочитанных сообщений. Альпинисты (2013) HDTVRip 720p от MediaClub

188 | 14

2.43 ГБ

В этой теме нет новых непрочитанных сообщений. Альпинисты (2013) HDTV 1080i от MediaClub

80 | 12

5.24 ГБ

В этой теме нет новых непрочитанных сообщений. Альпинисты (2014) DVDRip | Лицензия

455 | 24

750.09 МБ

В этой теме нет новых непрочитанных сообщений. Альпинисты (2014) DVDRip | Лицензия

2695 | 753

1.37 ГБ




Вы не можете начинать темы
Вы не можете отвечать на сообщения
Вы не можете редактировать свои сообщения
Вы не можете удалять свои сообщения
Вы не можете добавлять вложения

Перейти:  
Для Мосгорсуда, Роскомнадзора и рекламодателей: mosgorsud-torrent[собачка]yandex.ru
 Вход
ppkBB3cker v.2 © 2008-2014 @ PPK
[ Time : 0.034s | 16 Queries | GZIP : Off ]

Торрент трекер RUTOR.IN, Не можете зайти на rutor.org? Какой новый адрес рутор? Какое зеркало рутор? Не работает rutor.org и зеркала? Тогда наш торрент специально для вас. Rutor.in неофициальное зеркало rutor. В случае если у Вас заблокирован rutor или вдруг Вы не можете на него зайти, то Вы без труда сможете скачать бесплатно и без рекламы последние новинки кино, игр, сериалов и прочего у нас, на Rutor.in. Не нужно использовать прокси, чтобы зайти на рутор, достаточно воспользоваться нашим ресурсом. Все новые фильмы, игры, сериалы, книги и музыка за 2013 и 2014 годы через торрент бесплатно. Скачивайте фильмы в хорошем качестве, игры для пк, xbox, playstation без регистрации. У нас вы найдете новые Зарубежные сериалы и Русские сериалы 2013, 2014, 2015 годов. Оставайтесь с нами, качайте любимые фильмы, игры, сериалы, книги и музыку.
cron