img image001 image001 image001 image001 image001 image001 image001 image001 image001 image001 image001 image001 image001 image001 image001

Planets Sun Sun Sun
Статистика раздачи
Автор: Nickolas3434 | Размер: 1.46 ГБ | Добавлен: 13 июн 2015
Раздают: 62    Качают: 19
Скачать торрент
Скачать торрент
Описание торрента

СообщениеДобавлено: 13 июн 2015 

Страна: СССР
Производство: Ленфильм
Жанр: биография, военный
Год выпуска: 1947
Продолжительность: 01:28:47
Перевод: Не требуется
Cубтитры: нет
Оригинальная аудиодорожка: русский
Режиссер: Григорий Козинцев
В ролях:
Константин Скоробогатов, Владимир Честноков, Сергей Яров, Алексей Дикий, Георгий Гумилевский, И. Новский, Яков Малютин, Пётр Лобанов, Николай Трофимов, Татьяна Пилецкая...
Описание:
Фильм о жизни и деятельности выдающегося русского анатома и хирурга, чл.-корр. Петербуржской АН (1846 г.) Николая Ивановича Пирогова. Первая большая роль Татьяны Пилецкой. Пирогов, непосредственный участник нескольких войн, — основоположник военно-полевой хирургии. Он впервые (в 1847 г.) произвёл операцию на поле боя под наркозом, ввёл неподвижную гипсовую повязку, предложил ряд новых хирургических операций. Научные труды Пирогова (главный: атлас «Топографическая анатомия», 1851-54 гг.) получили мировую известность.





Источник: DVD5 R5
Качество видео: DVDRip
Формат видео: AVI
Видео: 688x512 (4:3), 25 fps, XviD ~ 2150 kbps avg, 0.244 bit/pixel
Аудио: 48 kHz, Dolby Digital AC3 2.0, 192 kbps
Раздача от:
Общее
Полное имя : Pirogov.1947.DVDRip_[New-team]_by_AVP_Studio.avi
Формат : AVI
Формат/Информация : Audio Video Interleave
Размер файла : 1,46 Гбайт
Продолжительность : 1 ч. 28 м.
Общий поток : 2352 Кбит/сек
Программа кодирования : VirtualDubModRus 1.5.10.2 (build 2542/release)
Библиотека кодирования : VirtualDubMod build 2542/release
Видео
Идентификатор : 0
Формат : MPEG-4 Visual
Профиль формата : Advanced Simple@L5
Параметр BVOP формата : 1
Параметр QPel формата : Нет
Параметр GMC формата : Без точки перехода
Параметр матрицы формата : Выборочная
Идентификатор кодека : XVID
Идентификатор кодека/Подсказка : XviD
Продолжительность : 1 ч. 28 м.
Битрейт : 2150 Кбит/сек
Ширина : 688 пикселей
Высота : 512 пикселей
Соотношение сторон : 4:3
Частота кадров : 25,000 кадров/сек
Цветовое пространство : YUV
Субдискретизация насыщенности : 4:2:0
Битовая глубина : 8 бит
Тип развёртки : Прогрессивная
Метод сжатия : С потерями
Бит/(Пиксели*Кадры) : 0.244
Размер потока : 1,33 Гбайт (91%)
Библиотека кодирования : XviD 73
Аудио
Идентификатор : 1
Формат : AC-3
Формат/Информация : Audio Coding 3
Расширение режима : CM (complete main)
Параметр Endianness формата : Big
Идентификатор кодека : 2000
Продолжительность : 1 ч. 28 м.
Вид битрейта : Постоянный
Битрейт : 192 Кбит/сек
Каналы : 2 канала
Расположение каналов : Front: L R
Частота : 48,0 КГц
Битовая глубина : 16 бит
Метод сжатия : С потерями
Размер потока : 122 Мбайт (8%)
Выравнивание : Разделение по промежуткам
Продолжительность промежутка : 40 мс. (1,00 видеокадр)
Время предзагрузки промежутка : 500 мс





   Похожие торренты   Торрент   Размер 
В этой теме нет новых непрочитанных сообщений. Пирогов (1947) DVDRip от New-Team

9 | 17

744.43 МБ

В этой теме нет новых непрочитанных сообщений. Пирогов (1947) DVDRip-AVC от New-Team

31 | 5

1.46 ГБ

В этой теме нет новых непрочитанных сообщений. Весна (1947) DVDRip от New-Team

50 | 4

1.46 ГБ

В этой теме нет новых непрочитанных сообщений. Новый дом (1947) DVDRip-AVC от New-Team

11 | 12

1.09 ГБ

В этой теме нет новых непрочитанных сообщений. Весна (1947) DVDRip от New-Team

64 | 14

745.48 МБ

В этой теме нет новых непрочитанных сообщений. Новый дом (1947) DVDRip от New-Team

9 | 18

1.09 ГБ

В этой теме нет новых непрочитанных сообщений. Весна (1947) DVDRip-AVC от New-Team

183 | 25

1.46 ГБ




Вы не можете начинать темы
Вы не можете отвечать на сообщения
Вы не можете редактировать свои сообщения
Вы не можете удалять свои сообщения
Вы не можете добавлять вложения

Перейти:  
Для Мосгорсуда, Роскомнадзора и рекламодателей: mosgorsud-torrent[собачка]yandex.ru
 Вход
ppkBB3cker v.2 © 2008-2014 @ PPK
[ Time : 0.433s | 17 Queries | GZIP : Off ]

Торрент трекер RUTOR.IN, Не можете зайти на rutor.org? Какой новый адрес рутор? Какое зеркало рутор? Не работает rutor.org и зеркала? Тогда наш торрент специально для вас. Rutor.in неофициальное зеркало rutor. В случае если у Вас заблокирован rutor или вдруг Вы не можете на него зайти, то Вы без труда сможете скачать бесплатно и без рекламы последние новинки кино, игр, сериалов и прочего у нас, на Rutor.in. Не нужно использовать прокси, чтобы зайти на рутор, достаточно воспользоваться нашим ресурсом. Все новые фильмы, игры, сериалы, книги и музыка за 2013 и 2014 годы через торрент бесплатно. Скачивайте фильмы в хорошем качестве, игры для пк, xbox, playstation без регистрации. У нас вы найдете новые Зарубежные сериалы и Русские сериалы 2013, 2014, 2015 годов. Оставайтесь с нами, качайте любимые фильмы, игры, сериалы, книги и музыку.