img image001 image001 image001 image001 image001 image001 image001 image001 image001 image001 image001 image001 image001 image001 image001

Planets Sun Sun Sun
Статистика раздачи
Автор: Nickolas3434 | Размер: 4.36 ГБ | Добавлен: 14 июн 2015
Раздают: 383    Качают: 55
Скачать торрент
Скачать торрент
Описание торрента

СообщениеДобавлено: 14 июн 2015 


Производство: Россия / Кинокомпания «Андреевский флаг»
Жанр: Драма, приключения
Режиссер: Александр Мельник
Продюсеры: Антон Мельник, Ирина Борисова, Татьяна Емченко
Актеры: Константин Лавроненко, Григорий Добрыгин, Егор Бероев, Ксения Кутепова, Евгений Цыганов, Владислав Абашин, Герасим Васильев, Константин Шелестун, Константин Балакирев, Олег Шапков
Описание:
Территория — это место, где люди проверяются на прочность. Необозримые пространства, где тундра встречается с ледяными торосами Ледовитого океана. Суровый русский север, которому способны бросить вызов немногие. Геолог Илья Чинков, одержимый идеей найти легендарное золото Территории, собирает команду смельчаков, готовых поставить на карту все, включая собственные жизни.
Перевод: Не требуется (русский) лицензия
Субтитры: Отсутствуют

Дата российской премьеры: 16 апреля 2015, «Вольга»
Дата выхода DVD релиза: 19 мая 2015, «Lizard Cinema Trade»

Продолжительность: 02:32:13
Качество видео: DVD5
Видеокодек: MPEG-2
Битрейт видео: ~4000 Кбит/сек
Размер кадра: 720x576@1024x576 (PAL 16:9)
Аудиокодек: AC3 5.1
Битрейт аудио: 448 Кбит/сек
Title: Территория DVD5
Size: 4.36 Gb ( 4 569 510,00 KBytes ) - DVD-5
Enabled regions: 1, 2, 3, 4, 5, 6, 7, 8
VTS_01 :
Play Length: 00:00:00
Video: PAL 16:9 (720x576) VBR, Auto Pan&Scan, Auto Letterboxed
Audio:
Russian (Dolby AC3, 6 ch)
VTS_02 :
Play Length: 02:32:13
Video: PAL 16:9 (720x576) VBR, Auto Pan&Scan, Auto Letterboxed
Audio:
Russian (Dolby AC3, 6 ch)
* Menus Information *
VIDEO_TS Menu
Video:
NTSC 4:3 (720x480) VBR
Auto Pan&Scan, Auto Letterboxed
English Language Unit :
Title Menu
VTS_01 Menu
Video:
PAL 16:9 (720x576) VBR
Auto Letterboxed
Audio:
Not specified (Dolby AC3, 2 ch)
English Language Unit :
Root Menu
Chapter (PTT) Menu
VTS_02 Menu
Video:
NTSC 4:3 (720x480) VBR
Auto Pan&Scan, Auto Letterboxed
English Language Unit :
Root Menu
Audio Menu
Chapter (PTT) Menu
Общее
Полное имя : G:ВидеоТерритория DVD5VIDEO_TSVTS_02_1.VOB
Формат : MPEG-PS
Размер файла : 1024 Мбайт
Продолжительность : 31 м.
Режим общего битрейта : Переменный
Общий поток : 4611 Кбит/сек
Видео
Идентификатор : 224 (0xE0)
Формат : MPEG Video
Версия формата : Version 2
Профиль формата : Main@Main
Параметр BVOP формата : Да
Параметр матрицы формата : Выборочная
Параметр GOP формата : Variable
Продолжительность : 31 м.
Вид битрейта : Переменный
Битрейт : 4071 Кбит/сек
Максимальный битрейт : 8738 Кбит/сек
Ширина : 720 пикселей
Высота : 576 пикселей
Соотношение сторон : 16:9
Частота кадров : 25,000 кадров/сек
Стандарт вещания : PAL
Цветовое пространство : YUV
Субдискретизация насыщенности : 4:2:0
Битовая глубина : 8 бит
Тип развёртки : Прогрессивная
Порядок развёртки : Нижнее поле первое
Метод сжатия : С потерями
Бит/(Пиксели*Кадры) : 0.393
Временной код первого кадра : 00:00:00:00
Оригинал временного кода : Group of pictures header
Размер потока : 904 Мбайт (88%)
Аудио
Идентификатор : 189 (0xBD)-128 (0x80)
Формат : AC-3
Формат/Информация : Audio Coding 3
Расширение режима : CM (complete main)
Параметр Endianness формата : Big
Режим смешивания : DVD-Video
Продолжительность : 31 м.
Вид битрейта : Постоянный
Битрейт : 448 Кбит/сек
Каналы : 6 каналов
Расположение каналов : Front: L C R, Side: L R, LFE
Частота : 48,0 КГц
Битовая глубина : 16 бит
Метод сжатия : С потерями
Размер потока : 99,5 Мбайт (10%)
Меню
Исходник: Территория (2015) DVD9 | Лицензия
Удалены: предупреждающие надписи, DTS звуковая дорожка.
Видео сжато на 39,0%. Внимательно смотрим сэмпл!
Меню: статичное, недействующие кнопки затерты и закрыты.
Использовались программы: DVD ReMake Pro + DVD Rebuilder + CCE SP2 [7 проходов] + Работа с меню (Adobe PhotoShop и MuxMan).

Скриншоты:



   Похожие торренты   Торрент   Размер 
В этой теме нет новых непрочитанных сообщений. В осаде 2: Тёмная Территория / Захват 2: Территория Тьмы / Under Siege 2: Dark Territory (1995) HDRip от Scarabey | P

63 | 5

745.05 МБ

В этой теме нет новых непрочитанных сообщений. В осаде 2: Тёмная Территория / Захват 2: Территория Тьмы / Under Siege 2: Dark Territory (1995) HDRip от Scarabey | P

208 | 63

1.45 ГБ

В этой теме нет новых непрочитанных сообщений. Территория Джа (2015) HDRip

1449 | 76

743.6 МБ

В этой теме нет новых непрочитанных сообщений. Военная приемка. Армия-2015. Территория военного превосходства (2015) SATRip

304 | 21

493.63 МБ

В этой теме нет новых непрочитанных сообщений. Территория (2015) WEB-DLRip | iTunes

7334 | 139

1.46 ГБ

В этой теме нет новых непрочитанных сообщений. Территория (2015) WEB-DLRip | iTunes

2172 | 8

2.19 ГБ

В этой теме нет новых непрочитанных сообщений. Территория (2015) DVD9 | Лицензия

641 | 36

7.9 ГБ




Вы не можете начинать темы
Вы не можете отвечать на сообщения
Вы не можете редактировать свои сообщения
Вы не можете удалять свои сообщения
Вы не можете добавлять вложения

Перейти:  
Для Мосгорсуда, Роскомнадзора и рекламодателей: mosgorsud-torrent[собачка]yandex.ru
 Вход
ppkBB3cker v.2 © 2008-2014 @ PPK
[ Time : 0.049s | 15 Queries | GZIP : Off ]

Торрент трекер RUTOR.IN, Не можете зайти на rutor.org? Какой новый адрес рутор? Какое зеркало рутор? Не работает rutor.org и зеркала? Тогда наш торрент специально для вас. Rutor.in неофициальное зеркало rutor. В случае если у Вас заблокирован rutor или вдруг Вы не можете на него зайти, то Вы без труда сможете скачать бесплатно и без рекламы последние новинки кино, игр, сериалов и прочего у нас, на Rutor.in. Не нужно использовать прокси, чтобы зайти на рутор, достаточно воспользоваться нашим ресурсом. Все новые фильмы, игры, сериалы, книги и музыка за 2013 и 2014 годы через торрент бесплатно. Скачивайте фильмы в хорошем качестве, игры для пк, xbox, playstation без регистрации. У нас вы найдете новые Зарубежные сериалы и Русские сериалы 2013, 2014, 2015 годов. Оставайтесь с нами, качайте любимые фильмы, игры, сериалы, книги и музыку.
cron