img image001 image001 image001 image001 image001 image001 image001 image001 image001 image001 image001 image001 image001 image001 image001

Planets Sun Sun Sun
Статистика раздачи
Автор: Nickolas3434 | Размер: 4.37 ГБ | Добавлен: 17 июн 2015
Раздают: 382    Качают: 31
Скачать торрент
Скачать торрент
Описание торрента

СообщениеДобавлено: 17 июн 2015 


Информация о фильме
Название: Сталкер
Год выхода: 1979
Жанр: фантастика, драма, детектив, приключения
Режиссер: Андрей Тарковский
В ролях: Александр Кайдановский, Анатолий Солоницын, Алиса Фрейндлих, Николай Гринько, Наташа Абрамова, Файме Юрно, Е. Костин, Раймо Ренди, Сергей Яковлев, Владимир Заманский
О фильме: В этой ленте, снятой по мотивам повести братьев Стругацких «Пикник на обочине», действие происходит в некой запретной Зоне, где, по слухам, существует комната, где исполняются самые заветные желания.
К этой комнате отправляются модный Писатель и авторитетный Профессор — каждый по своим причинам, о которых предпочитают не говорить. А ведет их туда Сталкер — проводник по Зоне — то ли юродивый, то ли апостол новой веры…

Выпущено: Мосфильм
Продолжительность: 02:41:45
Перевод: Оригинал (лицензия)
Файл
Кодек: x264
Качество: BDRip (источник: Blu-ray Disc)
Видео: 956x720 (4:3), 23.976 fps, 3545 kbps
Аудио: AC-3, 2 ch, 320 kbps
Скачать: сэмпл
Скриншоты

Общее
Уникальный идентификатор : 174034510852328374439451565110377580628 (0x82EDD3DC54A386FBAE28FD447F400854)
Полное имя : Stalker.1979.BDRip.720p.Rus.mkv
Формат : Matroska
Версия формата : Version 2
Размер файла : 4,37 Гбайт
Продолжительность : 2 ч. 41 м.
Общий поток : 3867 Кбит/сек
Название фильма : Сталкер (1979)
Дата кодирования : UTC 2015-06-16 17:16:52
Программа кодирования : mkvmerge v5.8.0 ('No Sleep / Pillow') built on Sep 2 2012 15:37:04
Библиотека кодирования : libebml v1.2.3 + libmatroska v1.3.0
Видео
Идентификатор : 1
Формат : AVC
Формат/Информация : Advanced Video Codec
Профиль формата : High@L4.1
Параметр CABAC формата : Да
Параметр ReFrames формата : 10 кадров
Идентификатор кодека : V_MPEG4/ISO/AVC
Продолжительность : 2 ч. 41 м.
Битрейт : 3545 Кбит/сек
Ширина : 956 пикселей
Высота : 720 пикселей
Соотношение сторон : 4:3
Режим частоты кадров : Постоянный
Частота кадров : 23,976 кадра/сек
Цветовое пространство : YUV
Субдискретизация насыщенности : 4:2:0
Битовая глубина : 8 бит
Тип развёртки : Прогрессивная
Бит/(Пиксели*Кадры) : 0.215
Размер потока : 3,92 Гбайт (90%)
Заголовок : Release by AlexKa
Библиотека кодирования : x264 core 146 r2538 121396c
Настройки программы : cabac=1 / ref=10 / deblock=1:-3:-3 / analyse=0x3:0x133 / me=umh / subme=11 / psy=1 / psy_rd=1.00:0.20 / mixed_ref=1 / me_range=32 / chroma_me=1 / trellis=2 / 8x8dct=1 / cqm=0 / deadzone=21,11 / fast_pskip=0 / chroma_qp_offset=-3 / threads=12 / lookahead_threads=2 / sliced_threads=0 / nr=0 / decimate=0 / interlaced=0 / bluray_compat=0 / constrained_intra=0 / bframes=9 / b_pyramid=2 / b_adapt=2 / b_bias=0 / direct=3 / weightb=1 / open_gop=0 / weightp=2 / keyint=240 / keyint_min=23 / scenecut=40 / intra_refresh=0 / rc=2pass / mbtree=0 / bitrate=3545 / ratetol=1.0 / qcomp=0.60 / qpmin=0 / qpmax=69 / qpstep=4 / cplxblur=20.0 / qblur=0.5 / ip_ratio=1.40 / pb_ratio=1.30 / aq=1:0.80
Язык : Russian
Аудио
Идентификатор : 2
Формат : AC-3
Формат/Информация : Audio Coding 3
Расширение режима : CM (complete main)
Параметр Endianness формата : Big
Идентификатор кодека : A_AC3
Продолжительность : 2 ч. 41 м.
Вид битрейта : Постоянный
Битрейт : 320 Кбит/сек
Каналы : 2 канала
Расположение каналов : Front: L R
Частота : 48,0 КГц
Метод сжатия : С потерями
Размер потока : 370 Мбайт (8%)
Заголовок : Rus
Язык : Russian
Меню
00:00:00.000 : :Chapter 01
00:20:59.466 : :Chapter 02
00:39:24.653 : :Chapter 03
01:05:36.515 : :Chapter 04
01:23:45.228 : :Chapter 05
01:44:47.698 : :Chapter 06
02:02:13.284 : :Chapter 07
02:21:16.801 : :Chapter 08
02:41:43.402 : :Chapter 09
x264 [info]: frame I:1032 Avg QP:14.58 size: 89473
x264 [info]: frame P:41309 Avg QP:17.17 size: 36460
x264 [info]: frame B:190344 Avg QP:19.26 size: 14197
x264 [info]: consecutive B-frames: 0.5% 0.2% 1.9% 7.5% 14.3% 62.7% 9.2% 2.3% 1.0% 0.3%



   Похожие торренты   Торрент   Размер 
В этой теме нет новых непрочитанных сообщений. Сталкер (1979) BDRip 720p | Лицензия

259 | 10

7.1 ГБ

В этой теме нет новых непрочитанных сообщений. Сталкер (1979) BDRip 1080p

677 | 29

7.71 ГБ

В этой теме нет новых непрочитанных сообщений. Сталкер (1979) BDRip от HQCLUB

321 | 17

2.18 ГБ

В этой теме нет новых непрочитанных сообщений. Сталкер (1979) BDRip от HQ-ViDEO

346 | 27

2.18 ГБ

В этой теме нет новых непрочитанных сообщений. Сталкер (1979) Blu-Ray | JPN Transfer

43 | 23

44.26 ГБ

В этой теме нет новых непрочитанных сообщений. Сталкер (1979) DVDRip

915 | 80

2.21 ГБ

В этой теме нет новых непрочитанных сообщений. Сталкер (1979) DVDRip

263 | 20

699.58 МБ




Вы не можете начинать темы
Вы не можете отвечать на сообщения
Вы не можете редактировать свои сообщения
Вы не можете удалять свои сообщения
Вы не можете добавлять вложения

Перейти:  
Для Мосгорсуда, Роскомнадзора и рекламодателей: mosgorsud-torrent[собачка]yandex.ru
 Вход
ppkBB3cker v.2 © 2008-2014 @ PPK
[ Time : 0.044s | 14 Queries | GZIP : Off ]

Торрент трекер RUTOR.IN, Не можете зайти на rutor.org? Какой новый адрес рутор? Какое зеркало рутор? Не работает rutor.org и зеркала? Тогда наш торрент специально для вас. Rutor.in неофициальное зеркало rutor. В случае если у Вас заблокирован rutor или вдруг Вы не можете на него зайти, то Вы без труда сможете скачать бесплатно и без рекламы последние новинки кино, игр, сериалов и прочего у нас, на Rutor.in. Не нужно использовать прокси, чтобы зайти на рутор, достаточно воспользоваться нашим ресурсом. Все новые фильмы, игры, сериалы, книги и музыка за 2013 и 2014 годы через торрент бесплатно. Скачивайте фильмы в хорошем качестве, игры для пк, xbox, playstation без регистрации. У нас вы найдете новые Зарубежные сериалы и Русские сериалы 2013, 2014, 2015 годов. Оставайтесь с нами, качайте любимые фильмы, игры, сериалы, книги и музыку.