img image001 image001 image001 image001 image001 image001 image001 image001 image001 image001 image001 image001 image001 image001 image001

Planets Sun Sun Sun
Статистика раздачи
Автор: Nickolas3434 | Размер: 4.79 ГБ | Добавлен: 22 июн 2015
Раздают: 121    Качают: 6
Скачать торрент
Скачать торрент
Описание торрента

СообщениеДобавлено: 22 июн 2015 


Информация о фильме
Название: Отзвук
Год выхода: 2015
Жанр: Драма
Режиссер: Алишер Хамдамов
В ролях: Светлана Драченина, Ольга Лысак, Иван Моховиков, Мария Палей, Игорь Карташёв, Андрей Якимов, Леся Куликова, Егор Потапов, Василиса Усикова, Данил Чопоров
О фильме:
После долгого отсутствия в деревне приезжает из города, чтобы навестить 31-летнюю Нину, её старшая сестра, 40-летняя Рита, а вместе с ней — 19-летняя дочь Лена. Визит этих городских жителей, у которых остались во вроде бы благополучном существовании в мегаполисе собственные душевные неурядицы и личные беды, вносит неожиданное смятение в налаженную и внешне спокойную жизнь Нины и её мужа Вити. Медея из российской провинции? Трагедия утраченной любви и неотвратимой мести за поруганную жизнь? Но эта история — не только об отчаянии человеческой души, которая больше не в силах терпеть боль и предательство. Не менее важна тревожная, складывающаяся где-то поблизости ситуация уже за пределами отдельной, частной жизни. Макромир оказывает воздействие на микромир, порой приводя к губительным последствиям.

Выпущено: Россия / Продюсерский центр «Джан»
Продолжительность: 01:28:20
Перевод: Оригинальный
Файл
Формат: MKV
Качество: BDRip 720p
Видео: MPEG-4 AVC, 7500 Кбит/с, 1280x720
Звук: AC3, 2 ch, 256 Кбит/с
СЭМПЛ
General
Unique ID : 230660668973095909268410408405025827713 (0xAD87A10200009E8488D13D035C362B81)
Complete name : F:GANGreliziotzvukOtzvuk.2015.O.BDRip.720p.ELEKTRI4KA.uniongang.tv.mkv
Format : Matroska
Format version : Version 4 / Version 2
File size : 4.79 GiB
Duration : 1h 28mn
Overall bit rate : 7 758 Kbps
Encoded date : UTC 2015-06-20 11:29:00
Writing application : mkvmerge v6.9.1 ('Blue Panther') 64bit built on Apr 18 2014 18:23:38
Writing library : libebml v1.3.0 + libmatroska v1.4.1
Video
ID : 1
Format : AVC
Format/Info : Advanced Video Codec
Format profile : High@L4.1
Format settings, CABAC : Yes
Format settings, ReFrames : 4 frames
Codec ID : V_MPEG4/ISO/AVC
Duration : 1h 28mn
Bit rate : 7 500 Kbps
Width : 1 280 pixels
Height : 720 pixels
Display aspect ratio : 16:9
Frame rate mode : Constant
Frame rate : 25.000 fps
Color space : YUV
Chroma subsampling : 4:2:0
Bit depth : 8 bits
Scan type : Progressive
Bits/(Pixel*Frame) : 0.326
Stream size : 4.53 GiB (95%)
Writing library : x264 core 125 r2200 999b753
Encoding settings : cabac=1 / ref=4 / deblock=1:-3:-3 / analyse=0x3:0x113 / me=umh / subme=10 / psy=1 / psy_rd=1.00:0.10 / mixed_ref=0 / me_range=22 / chroma_me=1 / trellis=2 / 8x8dct=1 / cqm=0 / deadzone=21,11 / fast_pskip=1 / chroma_qp_offset=-3 / threads=12 / lookahead_threads=2 / sliced_threads=0 / nr=0 / decimate=1 / interlaced=0 / bluray_compat=0 / constrained_intra=0 / bframes=5 / b_pyramid=2 / b_adapt=1 / b_bias=0 / direct=3 / weightb=1 / open_gop=0 / weightp=1 / keyint=250 / keyint_min=25 / scenecut=40 / intra_refresh=0 / rc_lookahead=60 / rc=2pass / mbtree=1 / bitrate=7500 / ratetol=1.0 / qcomp=0.60 / qpmin=0 / qpmax=69 / qpstep=4 / cplxblur=20.0 / qblur=0.5 / ip_ratio=1.40 / aq=1:1.00
Language : English
Default : Yes
Forced : No
Audio
ID : 2
Format : AC-3
Format/Info : Audio Coding 3
Mode extension : CM (complete main)
Format settings, Endianness : Big
Codec ID : A_AC3
Duration : 1h 28mn
Bit rate mode : Constant
Bit rate : 256 Kbps
Channel(s) : 2 channels
Channel positions : Front: L R
Sampling rate : 48.0 KHz
Compression mode : Lossy
Stream size : 162 MiB (3%)
Language : Russian
Default : Yes
Forced : No

Релиз от:



   Похожие торренты   Торрент   Размер 
В этой теме нет новых непрочитанных сообщений. Отзвук (2015) BDRip-AVC от Files-x

90 | 4

1.37 ГБ

В этой теме нет новых непрочитанных сообщений. Отзвук (2015) BDRip 1080p

58 | 14

8.79 ГБ

В этой теме нет новых непрочитанных сообщений. Отзвук (2015) HDRip

443 | 21

1.37 ГБ

В этой теме нет новых непрочитанных сообщений. Отзвук (2015) HDRip

67 | 4

1.37 ГБ

В этой теме нет новых непрочитанных сообщений. Отзвук (2015) HDRip от torrentfilm

190 | 7

744.07 МБ

В этой теме нет новых непрочитанных сообщений. Форс-Мажоры / Suits [S01-05] (2011-2015) BDRip 720p, WEB-DL 720p | Первый канал, NewStudio

11 | 526

156.8 ГБ

В этой теме нет новых непрочитанных сообщений. Менталист / The Mentalist [S01-07] (2008-2015) BDRip 720p, WEB-DL 720p | ТВ3

558 | 989

210.81 ГБ




Вы не можете начинать темы
Вы не можете отвечать на сообщения
Вы не можете редактировать свои сообщения
Вы не можете удалять свои сообщения
Вы не можете добавлять вложения

Перейти:  
Для Мосгорсуда, Роскомнадзора и рекламодателей: mosgorsud-torrent[собачка]yandex.ru
 Вход
ppkBB3cker v.2 © 2008-2014 @ PPK
[ Time : 0.029s | 15 Queries | GZIP : Off ]

Торрент трекер RUTOR.IN, Не можете зайти на rutor.org? Какой новый адрес рутор? Какое зеркало рутор? Не работает rutor.org и зеркала? Тогда наш торрент специально для вас. Rutor.in неофициальное зеркало rutor. В случае если у Вас заблокирован rutor или вдруг Вы не можете на него зайти, то Вы без труда сможете скачать бесплатно и без рекламы последние новинки кино, игр, сериалов и прочего у нас, на Rutor.in. Не нужно использовать прокси, чтобы зайти на рутор, достаточно воспользоваться нашим ресурсом. Все новые фильмы, игры, сериалы, книги и музыка за 2013 и 2014 годы через торрент бесплатно. Скачивайте фильмы в хорошем качестве, игры для пк, xbox, playstation без регистрации. У нас вы найдете новые Зарубежные сериалы и Русские сериалы 2013, 2014, 2015 годов. Оставайтесь с нами, качайте любимые фильмы, игры, сериалы, книги и музыку.
cron