img image001 image001 image001 image001 image001 image001 image001 image001 image001 image001 image001 image001 image001 image001 image001

Planets Sun Sun Sun
Статистика раздачи
Автор: Nickolas3434 | Размер: 1.45 ГБ | Добавлен: 24 июн 2015
Раздают: 217    Качают: 10
Скачать торрент
Скачать торрент
Описание торрента

СообщениеДобавлено: 24 июн 2015 


Информация о фильме
Название: Дочь
Год выхода: 2012
Жанр: Драма, детектив
Режиссер: Александр Касаткин, Наталья Назарова
В ролях: Мария Смольнкова, Олег Ткачёв, Игорь Мазепа, Владимир Мишуков, Яна Осипова, Мария Звонарева, Кирилл Назаров, Анастасия Имамова, Евгений Ткачук, Алена Кузнецова...
О фильме:
Инна живет со своим папой и маленьким братом в небольшом провинциальном городе. Ее жизнь меняется, когда новая девочка — Маша приезжает в школу, в которой учится Инна. Между ними завязывается дружба. Но Маша становится жертвой серийного маньяка, который орудует в городке, убивая девочек 13-15 лет. Приехав на панихиду в церковь, Инна встречает сына священника — Илью, чья сестра тоже была убита.

Выпущено: Россия / Киностудия им. М. Горького, кинокомпания "Валдай"
Продолжительность: 01:45:56
Перевод: Не требуется
Файл
Формат: MKV
Качество: DVDRip-AVC
Видео: MPEG-4 AVC, 1510 Кбит/с, 720x564@1024x564
Звук: AC3, 6 ch, 448 Кбит/с
Семпл
Общее
Уникальный идентификатор : 204482449629438727409680848282261627011 (0x99D5E3251056C0E083B6637F2F47A083)
Полное имя : E:Раздача-BDRipDoch.2012.DVDRip.(AVC).mkv
Формат : Matroska
Версия формата : Version 4 / Version 2
Размер файла : 1,45 Гбайт
Продолжительность : 1 ч. 45 м.
Общий поток : 1959 Кбит/сек
Дата кодирования : UTC 2013-10-27 01:02:19
Программа кодирования : mkvmerge v6.5.0 ('Isn't she lovely') built on Oct 20 2013 12:50:05
Библиотека кодирования : libebml v1.3.0 + libmatroska v1.4.1
Видео
Идентификатор : 1
Формат : AVC
Формат/Информация : Advanced Video Codec
Профиль формата : High@L3.1
Параметр CABAC формата : Да
Параметр ReFrames формата : 9 кадров
Идентификатор кодека : V_MPEG4/ISO/AVC
Продолжительность : 1 ч. 45 м.
Битрейт : 1510 Кбит/сек
Ширина : 720 пикселей
Высота : 564 пикселя
Соотношение сторон : 16:9
Режим частоты кадров : Постоянный
Частота кадров : 25,000 кадров/сек
Цветовое пространство : YUV
Субдискретизация насыщенности : 4:2:0
Битовая глубина : 8 бит
Тип развёртки : Прогрессивная
Бит/(Пиксели*Кадры) : 0.149
Размер потока : 1,09 Гбайт (75%)
Библиотека кодирования : x264 core 138 r2358 9e941d1
Настройки программы : cabac=1 / ref=9 / deblock=1:-2:-1 / analyse=0x3:0x133 / me=umh / subme=8 / psy=1 / psy_rd=0.95:0.15 / mixed_ref=1 / me_range=24 / chroma_me=1 / trellis=2 / 8x8dct=1 / cqm=0 / deadzone=21,11 / fast_pskip=0 / chroma_qp_offset=-3 / threads=12 / lookahead_threads=4 / sliced_threads=0 / nr=0 / decimate=1 / interlaced=0 / bluray_compat=0 / constrained_intra=0 / bframes=7 / b_pyramid=2 / b_adapt=2 / b_bias=0 / direct=3 / weightb=1 / open_gop=0 / weightp=2 / keyint=250 / keyint_min=25 / scenecut=40 / intra_refresh=0 / rc_lookahead=70 / rc=2pass / mbtree=1 / bitrate=1510 / ratetol=1.0 / qcomp=0.65 / qpmin=0 / qpmax=69 / qpstep=4 / cplxblur=20.0 / qblur=0.5 / ip_ratio=1.40 / aq=1:1.00
Язык : Russian
Default : Да
Forced : Нет
Аудио
Идентификатор : 2
Формат : AC-3
Формат/Информация : Audio Coding 3
Расширение режима : CM (complete main)
Параметр Endianness формата : Big
Идентификатор кодека : A_AC3
Продолжительность : 1 ч. 45 м.
Вид битрейта : Постоянный
Битрейт : 448 Кбит/сек
Каналы : 6 каналов
Расположение каналов : Front: L C R, Side: L R, LFE
Частота : 48,0 КГц
Битовая глубина : 16 бит
Метод сжатия : С потерями
Размер потока : 339 Мбайт (23%)
Язык : Russian
Default : Да
Forced : Нет
Меню
00:00:00.000 : :Chapter 01
00:00:37.840 : :Chapter 02
00:11:06.640 : :Chapter 03
00:29:37.360 : :Chapter 04
00:43:58.960 : :Chapter 05
00:54:57.040 : :Chapter 06
01:06:58.000 : :Chapter 07
01:19:56.080 : :Chapter 08
01:34:05.680 : :Chapter 09
Кинотавр, 2012 год
Победитель (2):
Лучший дебют (Наталья Назарова)
Лучший дебют (Александр Касаткин)
Номинации (1):
Главный приз



   Похожие торренты   Торрент   Размер 
В этой теме нет новых непрочитанных сообщений. Моя дочь, мой ангел / Моя дочь - заложница / Ma fille, mon ange (2007) DVDRip | Лицензия

9 | 5

1.46 ГБ

В этой теме нет новых непрочитанных сообщений. Моя дочь, мой ангел / Моя дочь - заложница / Ma fille, mon ange / My Daughter, My Angel (2007) DVDRip-AVC от olegek70

10 | 3

1.45 ГБ

В этой теме нет новых непрочитанных сообщений. Дочь (2012) DVDRip

15 | 5

746.54 МБ

В этой теме нет новых непрочитанных сообщений. Дочь (2012) DVDRip

390 | 15

1.45 ГБ

В этой теме нет новых непрочитанных сообщений. Генеральская дочь / Дочь генерала / The General's Daughter (1999) WEB-DLRip-AVC | P, P2, A

80 | 27

3.4 ГБ

В этой теме нет новых непрочитанных сообщений. Рони, дочь разбойника / Ронья, дочь разбойника / Sanzoku no Musume Ronja [TV] [01-09 из 26] (2014) HDTVRip 720p | LE-Production

452 | 17

4.54 ГБ

В этой теме нет новых непрочитанных сообщений. Рони, дочь разбойника / Ронья, дочь разбойника / Sanzoku no Musume Ronja [TV] [01-05 из 26] (2014) HDTVRip 720p | LE-Production

57 | 14

3.05 ГБ




Вы не можете начинать темы
Вы не можете отвечать на сообщения
Вы не можете редактировать свои сообщения
Вы не можете удалять свои сообщения
Вы не можете добавлять вложения

Перейти:  
Для Мосгорсуда, Роскомнадзора и рекламодателей: mosgorsud-torrent[собачка]yandex.ru
 Вход
ppkBB3cker v.2 © 2008-2014 @ PPK
[ Time : 0.034s | 15 Queries | GZIP : Off ]

Торрент трекер RUTOR.IN, Не можете зайти на rutor.org? Какой новый адрес рутор? Какое зеркало рутор? Не работает rutor.org и зеркала? Тогда наш торрент специально для вас. Rutor.in неофициальное зеркало rutor. В случае если у Вас заблокирован rutor или вдруг Вы не можете на него зайти, то Вы без труда сможете скачать бесплатно и без рекламы последние новинки кино, игр, сериалов и прочего у нас, на Rutor.in. Не нужно использовать прокси, чтобы зайти на рутор, достаточно воспользоваться нашим ресурсом. Все новые фильмы, игры, сериалы, книги и музыка за 2013 и 2014 годы через торрент бесплатно. Скачивайте фильмы в хорошем качестве, игры для пк, xbox, playstation без регистрации. У нас вы найдете новые Зарубежные сериалы и Русские сериалы 2013, 2014, 2015 годов. Оставайтесь с нами, качайте любимые фильмы, игры, сериалы, книги и музыку.
cron