img image001 image001 image001 image001 image001 image001 image001 image001 image001 image001 image001 image001 image001 image001 image001

Planets Sun Sun Sun
Статистика раздачи
Автор: Nickolas3434 | Размер: 1.46 ГБ | Добавлен: 24 июн 2015
Раздают: 12    Качают: 0
Скачать торрент
Скачать торрент
Описание торрента

СообщениеДобавлено: 24 июн 2015 

Страна: СССР
Производство: Студия Ташкент
Жанр: биография, история
Год выпуска: 1947
Продолжительность: 01:34:54
Перевод: Не требуется
Cубтитры: нет
Оригинальная аудиодорожка: русский
Режиссер: Камил Ярматов
В ролях:
Раззак Хамраев (озвучание - Алексей Консовский), Асад Исматов (озвучание - Лев Свердлин), Обид Джалилов (озвучание - Яков Беленький), Тамара Назарова (озвучание - Мария Бабанова), Саат Талипов (озвучание - Андрей Файт), Рахим Пирмухамедов (озвучание - Степан Каюков), Лутфулла Назруллаев (озвучание - Борис Оленин), С. Юнусов, Ш. Азимов (озвучание - Всеволод Ларионов), Кудрат Ходжаев (озвучание - Владимир Балашов), А. Ташбаев, Хикмат Латыпов, Сагди (Сегидход) Табибуллаев...
Роли дублировали:
Мария Бабанова
Описание:
О жизни узбекского поэта и литератора, ученого-гуманиста и государственного деятеля XV века Алишера Навои (1441-1501), автора четырех сборников-диванов и одной из самых изысканных поэм средневековья — «Хамсе» («Пятерица»: «Смятение праведных», «Лейли и Меджнун», «Фархад и Ширин», «Семь планет», «Искандерова стена»).





Источник: DVD5 R5
Качество видео: DVDRip
Формат видео: AVI
Видео: 688x512 (4:3), 25 fps, XviD ~ 1997 kbps avg, 0.227 bit/pixel
Аудио: 48 kHz, Dolby Digital AC3 2.0, 192 kbps
Раздача от:
Общее
Полное имя : Alisher.Navoi.1947.DVDRip_[New-team]_by_AVP_Studio.avi
Формат : AVI
Формат/Информация : Audio Video Interleave
Размер файла : 1,46 Гбайт
Продолжительность : 1 ч. 34 м.
Общий поток : 2199 Кбит/сек
Программа кодирования : VirtualDubModRus 1.5.10.2 (build 2542/release)
Библиотека кодирования : VirtualDubMod build 2542/release
Видео
Идентификатор : 0
Формат : MPEG-4 Visual
Профиль формата : Advanced Simple@L5
Параметр BVOP формата : 1
Параметр QPel формата : Нет
Параметр GMC формата : Без точки перехода
Параметр матрицы формата : Выборочная
Идентификатор кодека : XVID
Идентификатор кодека/Подсказка : XviD
Продолжительность : 1 ч. 34 м.
Битрейт : 1997 Кбит/сек
Ширина : 688 пикселей
Высота : 512 пикселей
Соотношение сторон : 4:3
Частота кадров : 25,000 кадров/сек
Цветовое пространство : YUV
Субдискретизация насыщенности : 4:2:0
Битовая глубина : 8 бит
Тип развёртки : Прогрессивная
Метод сжатия : С потерями
Бит/(Пиксели*Кадры) : 0.227
Размер потока : 1,32 Гбайт (91%)
Библиотека кодирования : XviD 73
Аудио
Идентификатор : 1
Формат : AC-3
Формат/Информация : Audio Coding 3
Расширение режима : CM (complete main)
Параметр Endianness формата : Big
Идентификатор кодека : 2000
Продолжительность : 1 ч. 34 м.
Вид битрейта : Постоянный
Битрейт : 192 Кбит/сек
Каналы : 2 канала
Расположение каналов : Front: L R
Частота : 48,0 КГц
Битовая глубина : 16 бит
Метод сжатия : С потерями
Размер потока : 130 Мбайт (9%)
Выравнивание : Разделение по промежуткам
Продолжительность промежутка : 40 мс. (1,00 видеокадр)
Время предзагрузки промежутка : 500 мс





   Похожие торренты   Торрент   Размер 
В этой теме нет новых непрочитанных сообщений. Алишер Навои (1947) DVDRip-AVC от New-Team

7 | 9

1.46 ГБ

В этой теме нет новых непрочитанных сообщений. Алишер Навои (1947) DVDRip от New-Team

3 | 0

744.69 МБ

В этой теме нет новых непрочитанных сообщений. Весна (1947) DVDRip от New-Team

61 | 13

745.48 МБ

В этой теме нет новых непрочитанных сообщений. Во имя жизни (1947) DVDRip от New-Team

1 | 5

1.46 ГБ

В этой теме нет новых непрочитанных сообщений. Весна (1947) DVDRip-AVC от New-Team

164 | 23

1.46 ГБ

В этой теме нет новых непрочитанных сообщений. Новый дом (1947) DVDRip от New-Team

20 | 30

743.16 МБ

В этой теме нет новых непрочитанных сообщений. Пирогов (1947) DVDRip от New-Team

51 | 16

1.46 ГБ




Вы не можете начинать темы
Вы не можете отвечать на сообщения
Вы не можете редактировать свои сообщения
Вы не можете удалять свои сообщения
Вы не можете добавлять вложения

Перейти:  
Для Мосгорсуда, Роскомнадзора и рекламодателей: mosgorsud-torrent[собачка]yandex.ru
 Вход
ppkBB3cker v.2 © 2008-2014 @ PPK
[ Time : 0.043s | 16 Queries | GZIP : Off ]

Торрент трекер RUTOR.IN, Не можете зайти на rutor.org? Какой новый адрес рутор? Какое зеркало рутор? Не работает rutor.org и зеркала? Тогда наш торрент специально для вас. Rutor.in неофициальное зеркало rutor. В случае если у Вас заблокирован rutor или вдруг Вы не можете на него зайти, то Вы без труда сможете скачать бесплатно и без рекламы последние новинки кино, игр, сериалов и прочего у нас, на Rutor.in. Не нужно использовать прокси, чтобы зайти на рутор, достаточно воспользоваться нашим ресурсом. Все новые фильмы, игры, сериалы, книги и музыка за 2013 и 2014 годы через торрент бесплатно. Скачивайте фильмы в хорошем качестве, игры для пк, xbox, playstation без регистрации. У нас вы найдете новые Зарубежные сериалы и Русские сериалы 2013, 2014, 2015 годов. Оставайтесь с нами, качайте любимые фильмы, игры, сериалы, книги и музыку.
cron