img image001 image001 image001 image001 image001 image001 image001 image001 image001 image001 image001 image001 image001 image001 image001

Planets Sun Sun Sun
Статистика раздачи
Автор: Nickolas3434 | Размер: 1.77 ГБ | Добавлен: 25 июн 2015
Раздают: 269    Качают: 22
Скачать торрент
Скачать торрент
Описание торрента

СообщениеДобавлено: 25 июн 2015 


Информация о фильме
Оригинальное название: Белорусский вокзал
Год выхода: 1971
Жанр: Драма
Режиссер: Андрей Смирнов
В ролях: Алексей Глазырин, Евгений Леонов, Анатолий Папанов, Всеволод Сафонов, Нина Ургант, Раиса Куркина, Любовь Соколова, Маргарита Терехова, Никифор Колофидин, Юрий Орлов, Николай Волков мл., Александр Январёв, Валентина Ананьина, Людмила Аринина, Юрий Визбор, Юрий Волынцев, Владимир Грамматиков, Кира Жаркова, Валерий Малышев, Виктор Проскурин, Федор Селезнёв, Елена Скачкова, Николай Граббе, Светлана Данильченко, Петр Морозов, Юрий Будилов, Сергей Байдин, Евгений Николаев, Виктор Разоренов, Станислав Бородокин, Николай Смирнов
О фильме:
Герои фильма расстались на Белорусском вокзале летом 1945-го. Спустя четверть века они встречаются на похоронах боевого товарища. В их душах с новой силой оживает пережитое. Время не властно над их памятью: ветераны сохранили верность фронтовой дружбе, способность жертвовать собой, неистребимую любовь к жизни.

Страна: СССР
Студия: Мосфильм
Продолжительность: 01:39:23
Перевод: Оригинал
Файл
Кодек: MPEG-4 AVC
Качество: BDRip-AVC
Видео: 2100 Кбит/с, 1024x432
Звук: Русский (АС3, 6 ch, 448 Кбит/с)
Рип от StarbirS
Aудио: Русский: 48 kHz, AC3, 3/2 (L,C,R,l,r) + LFE ch, ~448.00 kbps avg - Оригинал
x264 [info]: frame I:732 Avg QP:17.80 size: 77967
x264 [info]: frame P:30726 Avg QP:20.61 size: 26180
x264 [info]: frame B:111511 Avg QP:22.08 size: 6316

Формат : Matroska
Версия формата : Version 2
Размер файла : 1,77 Гбайт
Продолжительность : 1 ч. 39 м.
Общий поток : 2550 Кбит/сек
Название фильма : Belorusskiy.vokzal.1971.x264.BDRip.AVC.Rus
Дата кодирования : UTC 2015-06-23 05:24:20
Программа кодирования : mkvmerge v7.9.0 ('Birds') 64bit
Библиотека кодирования : libebml v1.3.1 + libmatroska v1.4.2
Видео
Идентификатор : 1
Формат : AVC
Формат/Информация : Advanced Video Codec
Профиль формата : High@L4.1
Параметр CABAC формата : Да
Параметр ReFrames формата : 9 кадров
Идентификатор кодека : V_MPEG4/ISO/AVC
Продолжительность : 1 ч. 39 м.
Битрейт : 2100 Кбит/сек
Ширина : 1024 пикселя
Высота : 432 пикселя
Соотношение сторон : 2,40:1
Режим частоты кадров : Постоянный
Частота кадров : 23,976 кадра/сек
Цветовое пространство : YUV
Субдискретизация насыщенности : 4:2:0
Битовая глубина : 8 бит
Тип развёртки : Прогрессивная
Бит/(Пиксели*Кадры) : 0.198
Размер потока : 1,42 Гбайт (80%)
Заголовок : Belorusskiy.vokzal.1971.x264.BDRip.AVC.Rus.by.StarbirS
Библиотека кодирования : x264 core 146 r2538 121396c
Настройки программы : cabac=1 / ref=9 / deblock=1:-2:-2 / analyse=0x3:0x113 / me=umh / subme=11 / psy=1 / psy_rd=1.05:0.20 / mixed_ref=1 / me_range=32 / chroma_me=1 / trellis=2 / 8x8dct=1 / cqm=0 / deadzone=21,11 / fast_pskip=0 / chroma_qp_offset=-3 / threads=12 / lookahead_threads=4 / sliced_threads=0 / nr=0 / decimate=0 / interlaced=0 / bluray_compat=0 / constrained_intra=0 / bframes=6 / b_pyramid=2 / b_adapt=2 / b_bias=0 / direct=3 / weightb=1 / open_gop=1 / weightp=2 / keyint=240 / keyint_min=23 / scenecut=40 / intra_refresh=0 / rc=2pass / mbtree=0 / bitrate=2100 / ratetol=1.0 / qcomp=0.70 / qpmin=0 / qpmax=69 / qpstep=4 / cplxblur=20.0 / qblur=0.5 / ip_ratio=1.40 / pb_ratio=1.30 / aq=1:0.80
Язык : English
Default : Да
Forced : Нет
Аудио
Идентификатор : 2
Формат : AC-3
Формат/Информация : Audio Coding 3
Расширение режима : CM (complete main)
Параметр Endianness формата : Big
Идентификатор кодека : A_AC3
Продолжительность : 1 ч. 39 м.
Вид битрейта : Постоянный
Битрейт : 448 Кбит/сек
Каналы : 6 каналов
Расположение каналов : Front: L C R, Side: L R, LFE
Частота : 48,0 КГц
Метод сжатия : С потерями
Размер потока : 318 Мбайт (18%)
Язык : Russian
Default : Да
Forced : Нет
Меню
00:00:00.000 : en:00:00:00.000
00:06:27.095 : en:00:06:27.095
00:11:14.841 : en:00:11:14.841
00:18:13.509 : en:00:18:13.509
00:23:31.201 : en:00:23:31.201
00:30:37.627 : en:00:30:37.627
00:43:22.183 : en:00:43:22.183
00:49:10.573 : en:00:49:10.573
00:58:45.272 : en:00:58:45.272
01:04:35.538 : en:01:04:35.538
01:15:23.811 : en:01:15:23.811
01:25:51.938 : en:01:25:51.938





   Похожие торренты   Торрент   Размер 
В этой теме нет новых непрочитанных сообщений. Белорусский вокзал (1971) BDRip

166 | 26

745.15 МБ

В этой теме нет новых непрочитанных сообщений. Белорусский вокзал (1971) BDRip 720p

125 | 10

5.31 ГБ

В этой теме нет новых непрочитанных сообщений. Белорусский вокзал (1971) BDRip от HQCLUB

107 | 10

1.45 ГБ

В этой теме нет новых непрочитанных сообщений. Белорусский вокзал (1971) Blu-ray 1080p

102 | 10

20.82 ГБ

В этой теме нет новых непрочитанных сообщений. Белорусский вокзал (1971) DVDRip от MediaClub | КПК

11 | 3

457.87 МБ

В этой теме нет новых непрочитанных сообщений. Белорусский вокзал (1971) WEBRip-AVC от ExKinoRay

26 | 13

1.46 ГБ

В этой теме нет новых непрочитанных сообщений. Белорусский вокзал (1971) DVDRip-AVC от Youtracker

16 | 5

1.46 ГБ




Вы не можете начинать темы
Вы не можете отвечать на сообщения
Вы не можете редактировать свои сообщения
Вы не можете удалять свои сообщения
Вы не можете добавлять вложения

Перейти:  
Для Мосгорсуда, Роскомнадзора и рекламодателей: mosgorsud-torrent[собачка]yandex.ru
 Вход
ppkBB3cker v.2 © 2008-2014 @ PPK
[ Time : 1.829s | 17 Queries | GZIP : Off ]

Торрент трекер RUTOR.IN, Не можете зайти на rutor.org? Какой новый адрес рутор? Какое зеркало рутор? Не работает rutor.org и зеркала? Тогда наш торрент специально для вас. Rutor.in неофициальное зеркало rutor. В случае если у Вас заблокирован rutor или вдруг Вы не можете на него зайти, то Вы без труда сможете скачать бесплатно и без рекламы последние новинки кино, игр, сериалов и прочего у нас, на Rutor.in. Не нужно использовать прокси, чтобы зайти на рутор, достаточно воспользоваться нашим ресурсом. Все новые фильмы, игры, сериалы, книги и музыка за 2013 и 2014 годы через торрент бесплатно. Скачивайте фильмы в хорошем качестве, игры для пк, xbox, playstation без регистрации. У нас вы найдете новые Зарубежные сериалы и Русские сериалы 2013, 2014, 2015 годов. Оставайтесь с нами, качайте любимые фильмы, игры, сериалы, книги и музыку.
cron